<?xml version="1.0" standalone="no"?>
<!DOCTYPE svg PUBLIC "-//W3C//DTD SVG 1.1//EN" "http://www.w3.org/Graphics/SVG/1.1/DTD/svg11.dtd" >
<svg xmlns="http://www.w3.org/2000/svg" xmlns:xlink="http://www.w3.org/1999/xlink" version="1.1">
<metadata>
Created by FontForge 20170731 at Fri May  5 14:19:03 2017
 By Aleksey,,,
Copyright (c) 2009-2011 by Accademia di Belle Arti di Urbino and students of MA course of Visual design. Some rights reserved.
</metadata>
<defs>
<font id="TitilliumWeb-ExtraLight" horiz-adv-x="560" >
  <font-face 
    font-family="Titillium Web ExtraLight"
    font-weight="275"
    font-stretch="normal"
    units-per-em="1000"
    panose-1="0 0 3 0 0 0 0 0 0 0"
    ascent="800"
    descent="-200"
    x-height="500"
    cap-height="700"
    bbox="-224 -267 1072 1062"
    underline-thickness="30"
    underline-position="-140"
    unicode-range="U+0020-F6C3"
  />
<missing-glyph horiz-adv-x="235" 
 />
    <glyph glyph-name=".notdef" horiz-adv-x="235" 
 />
    <glyph glyph-name=".null" horiz-adv-x="0" 
 />
    <glyph glyph-name="nonmarkingreturn" horiz-adv-x="333" 
 />
    <glyph glyph-name="space" unicode=" " horiz-adv-x="220" 
 />
    <glyph glyph-name="exclam" unicode="!" horiz-adv-x="225" 
d="M93 0v80h40v-80h-40zM95 214v486h35v-486h-35z" />
    <glyph glyph-name="quotedbl" unicode="&#x22;" horiz-adv-x="348" 
d="M271 490h-33l-3 210h39zM110 490h-33l-3 210h39z" />
    <glyph glyph-name="numbersign" unicode="#" 
d="M530 190h-120v-190h-36v190h-188v-190h-36v190h-120v32h120v226h-120v32h120v190h36v-190h188v190h36v-190h120v-32h-120v-226h120v-32zM374 222v226h-188v-226h188z" />
    <glyph glyph-name="dollar" unicode="$" 
d="M484 191q0 -107 -49 -152.5t-150 -45.5q-15 0 -24 1l-14 -114q-35 3 -35 7l14 108l-143 13l4 33q77 -10 143 -14l39 299q-102 16 -145.5 50.5t-43.5 126.5q0 166 203 166q20 0 31 -1l16 122h35l-16 -124l121 -12l-4 -33q-65 8 -122 12l-36 -278q94 -16 135 -50t41 -114z
M115 505q0 -76 35 -103.5t123 -41.5l37 276q-11 1 -27 1q-168 0 -168 -132zM284 25q165 0 165 153q0 75 -32.5 102t-112.5 41l-39 -296h19z" />
    <glyph glyph-name="percent" unicode="%" 
d="M175 -1l185 670l32 -9l-186 -669zM141 669q103 0 103 -134q0 -69 -28 -103.5t-75.5 -34.5t-75 34.5t-27.5 104.5q0 133 103 133zM73 536q0 -107 68 -107t68 106q0 52 -15.5 77t-52 25t-52.5 -25t-16 -76zM420 263q103 0 103 -134q0 -69 -28 -103.5t-75.5 -34.5t-75 34.5
t-27.5 104.5q0 133 103 133zM352 130q0 -107 68 -107t68 106q0 52 -15.5 77t-52 25t-52.5 -25t-16 -76z" />
    <glyph glyph-name="ampersand" unicode="&#x26;" horiz-adv-x="680" 
d="M198 654.5q39 39.5 115.5 39.5t114 -39t37.5 -108.5t-38 -110t-127 -69.5l187 -185q11 30 21.5 86.5t13.5 98.5h35q-11 -130 -43 -211l140 -137l-24 -26l-131 130q-66 -132 -222 -132q-126 0 -178 55t-52 153t38 141.5t125 68.5q-32 35 -41.5 65t-9.5 76q0 65 39 104.5z
M279 24q137 0 194 124l-237 235q-86 -23 -120 -60t-34 -122t46 -131t151 -46zM194 550q0 -78 45 -123l36 -36q87 30 121 63t34 96q0 112 -118 112t-118 -112z" />
    <glyph glyph-name="quotesingle" unicode="'" horiz-adv-x="187" 
d="M76 490l-2 210h40l-5 -210h-33z" />
    <glyph glyph-name="parenleft" unicode="(" horiz-adv-x="234" 
d="M96 301.5q0 -83.5 24 -190t48 -171.5l23 -65h-35q-11 25 -27 68t-43 156t-27 202t24.5 201t48.5 180l24 68h35q-34 -89 -64.5 -227t-30.5 -221.5z" />
    <glyph glyph-name="parenright" unicode=")" horiz-adv-x="234" 
d="M176 301q0 -89 -24 -195.5t-48 -168.5l-25 -62h-35q34 84 64.5 213.5t30.5 213t-23.5 196t-47.5 182.5l-24 70h35q11 -28 27 -75t43 -166t27 -208z" />
    <glyph glyph-name="asterisk" unicode="*" horiz-adv-x="417" 
d="M362 519h-137l42 -129l-32 -10l-42 130l-110 -79l-19 27l110 80l-109 80l20 27l110 -81l42 129l32 -10l-42 -130h135v-34z" />
    <glyph glyph-name="plus" unicode="+" 
d="M59 234v34h202v212h36v-212h204v-34h-204v-214h-36v214h-202z" />
    <glyph glyph-name="comma" unicode="," horiz-adv-x="197" 
d="M44 -123l42 210h40l-51 -210h-31z" />
    <glyph glyph-name="hyphen" unicode="-" horiz-adv-x="458" 
d="M76 264v34h307v-34h-307z" />
    <glyph glyph-name="period" unicode="." horiz-adv-x="190" 
d="M75 0v80h40v-80h-40z" />
    <glyph glyph-name="slash" unicode="/" horiz-adv-x="376" 
d="M33 12l277 690l33 -14l-277 -689z" />
    <glyph glyph-name="zero" unicode="0" 
d="M182 654.5q40 15.5 98 15.5t98.5 -15.5t71.5 -54.5q60 -74 60 -284q0 -186 -62 -258q-31 -36 -71.5 -51.5t-96.5 -15.5t-96.5 15t-71.5 50q-63 71 -63 259q0 209 61 285q32 39 72 54.5zM387.5 610q-40.5 26 -108 26t-107.5 -26q-85 -54 -85 -296q0 -171 52 -233
q26 -31 59.5 -43.5t89.5 -12.5t96 22.5t64 88t24 186t-22 191.5t-62.5 97z" />
    <glyph glyph-name="one" unicode="1" 
d="M369 660v-660h-36v621l-187 -126l-17 29l204 136h36z" />
    <glyph glyph-name="two" unicode="2" 
d="M490 0h-418v31l227 242q49 52 72 79t41.5 67t18.5 81q0 73 -41.5 104t-126.5 31q-68 0 -152 -19l-28 -7l-5 34q93 26 190.5 26t149 -39t51.5 -130q0 -67 -30 -116.5t-101 -122.5l-217 -229h369v-32z" />
    <glyph glyph-name="three" unicode="3" 
d="M79 648q95 22 198 22t149 -39.5t46 -125.5q0 -35 -11.5 -63.5t-27.5 -44t-33 -26.5q-29 -18 -41 -18q65 -17 98.5 -53t33.5 -126q0 -183 -208 -183q-89 0 -187 17l-30 6l6 34q105 -23 211 -23q170 1 170 154q0 82 -43.5 115.5t-118.5 37.5h-134v34h133q49 0 96.5 37
t47.5 105.5t-35.5 98t-123.5 29.5t-165 -16l-25 -6z" />
    <glyph glyph-name="four" unicode="4" 
d="M387 0v142h-347v30l205 488h39l-201 -484h304v219h36v-219h98v-34h-98v-142h-36z" />
    <glyph glyph-name="five" unicode="5" 
d="M468 660v-36h-338l-18 -263q34 20 86 35.5t93 15.5q208 0 208 -192q0 -113 -57.5 -170t-160.5 -57q-89 0 -179 18l-30 6l5 34q110 -24 198 -24t137 50t49 143q0 158 -171 158q-40 0 -84.5 -14t-69.5 -28l-25 -13l-34 4l19 333h372z" />
    <glyph glyph-name="six" unicode="6" 
d="M472 626q-82 9 -173.5 9t-145.5 -70.5t-55 -206.5l28 12q29 11 77 23.5t87 12.5q218 0 218 -198q0 -103 -57.5 -160t-166.5 -57q-224 0 -224 346q0 168 65 250t181 82q74 0 146 -7l24 -3zM289 372q-41 0 -89 -12t-76 -24l-27 -13q5 -298 187 -298q91 0 138.5 47
t47.5 132.5t-47.5 126.5t-133.5 41z" />
    <glyph glyph-name="seven" unicode="7" 
d="M83 626v34h402v-65l-268 -604l-35 14l265 598v23h-364z" />
    <glyph glyph-name="eight" unicode="8" 
d="M278 670q111 0 174 -40.5t63 -124.5q0 -65 -33 -101t-103 -56q70 -20 108 -58.5t38 -110.5q0 -104 -66.5 -146t-177.5 -42t-179 41.5t-68 135.5q0 76 33.5 114t101.5 66q-62 22 -93 58t-31 100q0 164 233 164zM278 25q98 0 153.5 34t55.5 119q0 77 -47 108
q-25 17 -48 25.5t-61 18.5h-117q-70 -17 -105.5 -53t-35.5 -108q0 -144 205 -144zM425 605q-51 31 -146.5 31t-145.5 -30t-50 -95t31.5 -97t99.5 -51h117q73 17 109 50t36 97t-51 95z" />
    <glyph glyph-name="nine" unicode="9" 
d="M247 25q107 0 160 66t54 209q-114 -44 -202 -44q-209 0 -209 195q0 100 60 159t160 59q117 0 173 -90.5t56 -263t-63 -248.5t-189 -76q-82 0 -146 8l-24 3l4 33q82 -10 166 -10zM261 290q35 0 85.5 11t83.5 23l32 11q-7 300 -192 300q-84 0 -133 -50t-49 -134t43 -122.5
t130 -38.5z" />
    <glyph glyph-name="colon" unicode=":" horiz-adv-x="191" 
d="M75 344v80h40v-80h-40zM75 0v80h40v-80h-40z" />
    <glyph glyph-name="semicolon" unicode=";" horiz-adv-x="228" 
d="M103 87h42l-52 -210h-31zM100 344v80h40v-80h-40z" />
    <glyph glyph-name="less" unicode="&#x3c;" 
d="M481 446l-391 -195l391 -195v-41l-424 218v36l424 216v-39z" />
    <glyph glyph-name="equal" unicode="=" 
d="M68 318v34h424v-34h-424zM68 149v34h424v-34h-424z" />
    <glyph glyph-name="greater" unicode="&#x3e;" 
d="M469 251l-391 195v39l424 -216v-36l-424 -218v41z" />
    <glyph glyph-name="question" unicode="?" horiz-adv-x="453" 
d="M407 551q0 -61 -18.5 -93.5t-68 -76t-65 -58.5t-31.5 -42t-16 -53v-38h-34q-1 22 -1 43t8 42.5t27 44.5q30 33 79 77t67 74t18 80q0 69 -40.5 97t-124.5 28q-43 0 -131 -21l-30 -7l-5 34q112 27 166 27q99 0 149.5 -36.5t50.5 -121.5zM171 1v80h40v-80h-40z" />
    <glyph glyph-name="at" unicode="@" horiz-adv-x="979" 
d="M925 305v-17q0 -179 -35 -238q-12 -22 -23.5 -33.5t-30.5 -17.5q-30 -9 -65.5 -9t-56.5 6.5t-32 15.5q-22 21 -27 41q-41 -24 -98 -43t-87 -19t-48 2.5t-44 16.5t-42 39t-28.5 75t-12.5 119q0 136 46 201t164 65q53 0 111 -20l21 -7v18h35v-200q0 -200 14 -236
q5 -14 16.5 -26.5t26 -15t39.5 -2.5t39.5 3t32.5 17t27 42q21 64 21 206v18q0 201 -88 291t-298.5 90t-307.5 -96t-97 -330q0 -124 24 -207t76.5 -131.5t125.5 -69t181 -20.5l143 10l3 -33q-98 -9 -146 -9q-116 0 -195 21.5t-137 73.5q-112 99 -112 355.5t108 362t335 105.5
t324.5 -99t97.5 -315zM418.5 29.5q19.5 -6.5 48 -6.5t74.5 15t77 30l30 15q-11 114 -11 217v150q-73 27 -132 27q-101 0 -138 -57.5t-37 -179.5q0 -141 47 -184q22 -20 41.5 -26.5z" />
    <glyph glyph-name="A" unicode="A" horiz-adv-x="592" 
d="M28 0l215 700h106l215 -700h-36l-65 215h-334l-65 -215h-36zM268 666l-128 -417h312l-128 417h-56z" />
    <glyph glyph-name="B" unicode="B" horiz-adv-x="620" 
d="M92 700h240q202 0 202 -173q0 -130 -97 -166q124 -34 124 -168q0 -108 -53.5 -150.5t-156.5 -42.5h-259v700zM343 341h-215v-307h223q83 0 128 35.5t45 123.5q0 148 -181 148zM332 666h-204v-291h215q81 0 117.5 37t36.5 112t-40 108.5t-125 33.5z" />
    <glyph glyph-name="C" unicode="C" horiz-adv-x="545" 
d="M501 11q-100 -20 -180.5 -20t-130 23.5t-76.5 72.5t-37 110t-10 141t5.5 131t21 99t42.5 77q60 64 180 64q88 0 185 -19l-3 -35q-96 20 -166.5 20t-109.5 -16t-61.5 -41.5t-35 -70t-16.5 -89.5t-4 -111t4 -111t17 -88t36 -68q51 -55 154 -55q78 0 182 20z" />
    <glyph glyph-name="D" unicode="D" horiz-adv-x="649" 
d="M352 0h-260v700h260q64 0 110.5 -28t73 -77.5t38.5 -108t12 -128.5t-12.5 -131t-38.5 -113.5t-73 -83t-110 -30.5zM538 243.5q10 54.5 10 125.5t-16.5 136.5t-62.5 113t-117 47.5h-224v-632h224q54 0 93.5 29t61 77.5t31.5 103z" />
    <glyph glyph-name="E" unicode="E" horiz-adv-x="552" 
d="M92 0v700h409v-34h-373v-291h313v-34h-313v-307h373v-34h-409z" />
    <glyph glyph-name="F" unicode="F" horiz-adv-x="523" 
d="M92 0v700h401v-34h-365v-316h314v-34h-314v-316h-36z" />
    <glyph glyph-name="G" unicode="G" horiz-adv-x="619" 
d="M361 313v34h186v-331q-129 -25 -220 -25q-147 0 -204.5 89t-57.5 267q0 87 11.5 149.5t39.5 112.5q56 100 211 100q89 0 189 -19l31 -6l-3 -35q-126 26 -206 26t-125 -22t-68.5 -68t-32.5 -101.5t-9 -136t9.5 -136t33.5 -99.5q47 -87 181 -87q74 0 184 20v268h-150z" />
    <glyph glyph-name="H" unicode="H" horiz-adv-x="674" 
d="M546 0v334h-418v-334h-36v700h36v-332h418v332h36v-700h-36z" />
    <glyph glyph-name="I" unicode="I" horiz-adv-x="220" 
d="M92 0v700h36v-700h-36z" />
    <glyph glyph-name="J" unicode="J" horiz-adv-x="280" 
d="M191 700v-619q0 -78 -19 -107q-11 -17 -22 -26.5t-34 -13.5q-34 -7 -98 -7v34q97 0 113 17q20 22 22 52.5t2 65.5v604h36z" />
    <glyph glyph-name="K" unicode="K" horiz-adv-x="553" 
d="M128 329v-329h-36v700h36v-337h129l220 337h43l-231 -352l247 -348h-46l-231 329h-131z" />
    <glyph glyph-name="L" unicode="L" horiz-adv-x="483" 
d="M469 0h-377v700h36v-666h341v-34z" />
    <glyph glyph-name="M" unicode="M" horiz-adv-x="828" 
d="M92 0v700h76l246 -645l246 645h76v-700h-36v666h-14l-246 -645h-52l-246 645h-14v-666h-36z" />
    <glyph glyph-name="N" unicode="N" horiz-adv-x="665" 
d="M92 0v700h85l333 -666h27v666h36v-700h-85l-334 666h-26v-666h-36z" />
    <glyph glyph-name="O" unicode="O" horiz-adv-x="666" 
d="M216 45q46 -20 117.5 -20t117 18.5t70 61t33.5 98.5t9 144q0 168 -48.5 248t-181.5 80q-139 0 -187 -87q-24 -44 -33.5 -100.5t-9.5 -141t9 -139.5t33.5 -98.5t70.5 -63.5zM118 82q-30 48 -41.5 110.5t-11.5 154.5q0 184 58 273t210 89t210 -88.5t58 -276.5t-56.5 -270.5
t-213.5 -82.5t-213 91z" />
    <glyph glyph-name="P" unicode="P" horiz-adv-x="595" 
d="M347 257h-219v-257h-36v700h255q108 0 157.5 -52.5t49.5 -162.5q0 -228 -207 -228zM128 291h219q169 0 169 194q0 92 -40 136.5t-129 44.5h-219v-375z" />
    <glyph glyph-name="Q" unicode="Q" horiz-adv-x="666" 
d="M443 5q-48 -14 -119 -14t-124 22t-82.5 69.5t-41 110t-11.5 154.5q0 184 58 273t210 89t210 -88.5t58 -273.5q0 -137 -26.5 -215t-94.5 -113l86 -140l-36 -17zM216 45q46 -20 117.5 -20t117 18.5t70 61t33.5 98.5t9 144q0 168 -48.5 248t-181.5 80q-139 0 -187 -87
q-24 -44 -33.5 -100.5t-9.5 -141t9 -139.5t33.5 -98.5t70.5 -63.5z" />
    <glyph glyph-name="R" unicode="R" horiz-adv-x="613" 
d="M128 290v-290h-36v700h251q106 0 157 -48t51 -152q0 -177 -145 -205l158 -295h-41l-156 290h-239zM513 500q0 87 -41 126.5t-129 39.5h-215v-342h215q170 0 170 176z" />
    <glyph glyph-name="S" unicode="S" horiz-adv-x="540" 
d="M272 677q-178 0 -178 -140q0 -63 21 -91q12 -15 25 -25.5t38 -18.5q41 -12 104 -22q109 -17 156.5 -52.5t47.5 -124.5q0 -113 -52.5 -161.5t-159.5 -48.5q-66 0 -177 12l-37 4l4 35q138 -17 218 -17q166 0 166 173q0 73 -38 101t-117.5 40t-113 21.5t-65 29.5t-45 54.5
t-13.5 88.5q0 176 216 176q69 0 166 -12l33 -4l-4 -35q-137 17 -195 17z" />
    <glyph glyph-name="T" unicode="T" horiz-adv-x="526" 
d="M13 666v34h500v-34h-231v-666h-36v666h-233z" />
    <glyph glyph-name="U" unicode="U" horiz-adv-x="638" 
d="M124 196q0 -91 49 -131t144.5 -40t146 39.5t50.5 131.5v504h36v-504q0 -109 -59.5 -157t-173 -48t-171.5 48t-58 157v504h36v-504z" />
    <glyph glyph-name="V" unicode="V" horiz-adv-x="568" 
d="M502 700h36l-196 -700h-116l-196 700h36l186 -666h64z" />
    <glyph glyph-name="W" unicode="W" horiz-adv-x="856" 
d="M38 700h36l140 -666h39l153 656h44l153 -656h39l140 666h36l-147 -700h-96l-147 641l-147 -641h-96z" />
    <glyph glyph-name="X" unicode="X" horiz-adv-x="551" 
d="M68 700l208 -326l207 326h43l-223 -353l223 -347h-43l-206 322l-209 -322h-43l226 347l-226 353h43z" />
    <glyph glyph-name="Y" unicode="Y" horiz-adv-x="526" 
d="M281 0h-36v301l-228 399h42l204 -359l204 359h42l-228 -399v-301z" />
    <glyph glyph-name="Z" unicode="Z" horiz-adv-x="539" 
d="M44 666v34h450v-70l-413 -575v-22h413v-34h-450v69l413 574v24h-413z" />
    <glyph glyph-name="bracketleft" unicode="[" horiz-adv-x="311" 
d="M268 749v-32h-147v-808h147v-32h-182v872h182z" />
    <glyph glyph-name="backslash" unicode="\" horiz-adv-x="395" 
d="M365 14l-35 -14l-301 687l35 14z" />
    <glyph glyph-name="bracketright" unicode="]" horiz-adv-x="311" 
d="M43 717v32h182v-872h-182v32h147v808h-147z" />
    <glyph glyph-name="asciicircum" unicode="^" 
d="M447 323l-167 301l-158 -301h-40l180 337h36l189 -337h-40z" />
    <glyph glyph-name="underscore" unicode="_" horiz-adv-x="640" 
d="M106 -104h428v-34h-428v34z" />
    <glyph glyph-name="grave" unicode="`" horiz-adv-x="215" 
d="M26 732l192 -96l-15 -27l-193 92z" />
    <glyph glyph-name="a" unicode="a" horiz-adv-x="495" 
d="M411 353v-288q4 -36 75 -42l-2 -31q-73 0 -103 42q-102 -43 -202 -43q-62 0 -96.5 37t-34.5 105.5t33 104.5t105 43l190 20v52q0 64 -27.5 93t-83.5 29q-57 0 -158 -13l-31 -4l-3 33q112 18 192 18q146 0 146 -156zM109 217q-24 -27 -24 -81t24.5 -83.5t68.5 -29.5
t93 10.5t77 20.5l28 10v205l-186 -19q-57 -6 -81 -33z" />
    <glyph glyph-name="b" unicode="b" horiz-adv-x="514" 
d="M113 469q83 40 176.5 40t129.5 -58t36 -199t-47 -201t-181 -60q-70 0 -127 7l-22 2v730h35v-261zM113 29q78 -6 126.5 -6t87 13t58.5 45t26.5 71.5t6.5 105.5q0 118 -27 168.5t-106 50.5q-40 0 -83 -10t-66 -20l-23 -10v-408z" />
    <glyph glyph-name="c" unicode="c" horiz-adv-x="429" 
d="M265 477q-95 0 -131.5 -48t-36.5 -175.5t33 -179t135 -51.5l120 9l2 -32q-84 -9 -122 -9q-122 0 -163.5 57.5t-41.5 204t46 201.5t159 55l120 -10l-2 -32q-80 10 -118 10z" />
    <glyph glyph-name="d" unicode="d" horiz-adv-x="515" 
d="M436 730v-730h-35v42q-29 -19 -81 -35t-84.5 -16t-50 2.5t-43.5 16t-42.5 38.5t-29 75t-12.5 119q0 136 46.5 201.5t164.5 65.5q57 0 132 -12v233h35zM182.5 29.5q19.5 -6.5 51.5 -6.5t75.5 13t67.5 26l24 13v390q-78 12 -132 12q-101 0 -137.5 -57t-36.5 -178
q0 -144 46 -186q22 -20 41.5 -26.5z" />
    <glyph glyph-name="e" unicode="e" horiz-adv-x="502" 
d="M399 30l30 2l2 -32q-112 -9 -185 -9q-106 1 -147 64.5t-41 194.5q0 259 202 259q95 0 142.5 -57t47.5 -183v-33h-355q0 -108 34 -160.5t113 -52.5t157 7zM95 268h318q0 113 -36.5 161t-116.5 48q-165 0 -165 -209z" />
    <glyph glyph-name="f" unicode="f" horiz-adv-x="313" 
d="M133 468v-468h-35v468h-69v32h69v61q0 105 28 141.5t99 36.5l92 -3v-31q-64 2 -92 2q-53 0 -72.5 -29.5t-19.5 -117.5v-60h162v-32h-162z" />
    <glyph glyph-name="g" unicode="g" horiz-adv-x="501" 
d="M418.5 -202.5q-50.5 -36.5 -167 -36.5t-155 33.5t-38.5 125.5q0 57 38 91q14 13 47 37q-22 14 -22 65q0 14 23 62l7 16q-86 28 -86 152q0 167 171 167q52 0 92 -10l14 -3l140 3v-35h-108q40 -37 40 -124.5t-43.5 -124.5t-138.5 -37q-30 0 -54 4q-23 -57 -23 -72t2 -23
t8 -15t23 -9q31 -5 117 -5t125 -27.5t39 -112.5t-50.5 -121.5zM94 -79q0 -74 31.5 -101t128 -27t137.5 28.5t41 97t-30 88.5t-112 20l-121 3q-45 -31 -60 -52.5t-15 -56.5zM132 240q31 -29 106.5 -29t107 28.5t31.5 103.5t-31.5 105t-107 30t-106.5 -30.5t-31 -104.5
t31 -103z" />
    <glyph glyph-name="h" unicode="h" horiz-adv-x="526" 
d="M114 0h-35v730h35v-260q88 39 181 39t125 -50.5t32 -198.5v-260h-35v258q0 132 -24 175.5t-105 43.5q-40 0 -83.5 -10t-66.5 -20l-24 -10v-437z" />
    <glyph glyph-name="i" unicode="i" horiz-adv-x="193" 
d="M79 0v500h35v-500h-35zM79 645v55h35v-55h-35z" />
    <glyph glyph-name="j" unicode="j" horiz-adv-x="192" 
d="M79 6v494h35v-495q0 -85 -31.5 -129.5t-127.5 -93.5l-14 31q87 47 112.5 81.5t25.5 111.5zM79 645v55h35v-55h-35z" />
    <glyph glyph-name="k" unicode="k" horiz-adv-x="455" 
d="M114 0h-35v730h35v-441h96l172 211h42l-184 -226l192 -274h-42l-180 257h-96v-257z" />
    <glyph glyph-name="l" unicode="l" horiz-adv-x="205" 
d="M85 0v730h35v-730h-35z" />
    <glyph glyph-name="m" unicode="m" horiz-adv-x="834" 
d="M114 0h-35v500h35v-40q9 5 24 13.5t58.5 22t89.5 13.5q92 0 126 -54q36 21 88 37.5t96 16.5q100 0 132 -50.5t32 -198.5v-260h-35v258q0 132 -24 175.5t-105 43.5q-43 0 -86 -12.5t-64 -24.5l-22 -12q18 -49 18 -168v-260h-35v258q0 132 -24 175.5t-105 43.5
q-40 0 -81 -12.5t-62 -24.5l-21 -13v-427z" />
    <glyph glyph-name="n" unicode="n" horiz-adv-x="527" 
d="M114 0h-35v500h35v-40q89 49 182 49t125 -50.5t32 -198.5v-260h-35v258q0 132 -24 175.5t-105 43.5q-40 0 -83.5 -12.5t-67.5 -24.5l-24 -13v-427z" />
    <glyph glyph-name="o" unicode="o" horiz-adv-x="526" 
d="M263 509q111 0 157 -56t46 -202t-41 -203t-162 -57t-162 57t-41 203t46 202t157 56zM263 23q56 0 88.5 11.5t50 43t22.5 71t5 110.5q0 126 -35 172t-131 46t-131 -46t-35 -172q0 -71 5 -110.5t22.5 -71t50 -43t88.5 -11.5z" />
    <glyph glyph-name="p" unicode="p" horiz-adv-x="516" 
d="M79 -230v730h35v-42q29 19 81 35t92 16q90 0 130.5 -61t40.5 -196t-48.5 -198t-163.5 -63q-68 0 -132 14v-235h-35zM287 477q-38 0 -81.5 -13.5t-67.5 -26.5l-24 -13v-387q77 -14 132 -14q96 0 135.5 53.5t39.5 176t-33.5 173.5t-100.5 51z" />
    <glyph glyph-name="q" unicode="q" horiz-adv-x="514" 
d="M400 29q-73 -38 -167 -38t-134.5 60.5t-40.5 196.5t50 198.5t178 62.5l149 -9v-730h-35v259zM287 477q-112 0 -152 -54.5t-40 -173.5t31.5 -172.5t111.5 -53.5q40 0 80.5 10t61.5 20l20 10v408q-78 6 -113 6z" />
    <glyph glyph-name="r" unicode="r" horiz-adv-x="328" 
d="M79 0v500h35v-78q30 24 89.5 51.5t108.5 36.5v-36q-44 -9 -93.5 -30t-76.5 -38l-28 -17v-389h-35z" />
    <glyph glyph-name="s" unicode="s" horiz-adv-x="461" 
d="M222 477q-134 0 -134 -100q0 -47 28 -66.5t124 -34.5t134 -40t38 -100.5t-48 -110t-142 -34.5q-51 0 -136 12l-29 4l4 33q108 -17 172 -17t103 25t39 85t-30.5 79t-125 33.5t-131.5 39t-37 82.5t27 89.5t63 42t75 10.5q81 0 152 -11l26 -4l-2 -33q-102 16 -170 16z" />
    <glyph glyph-name="t" unicode="t" horiz-adv-x="342" 
d="M325 468h-182v-262q0 -115 16.5 -149.5t75.5 -34.5l98 8l3 -32q-66 -8 -101 -8q-71 0 -99 36.5t-28 141.5v300h-79v32h79v163h35v-163h182v-32z" />
    <glyph glyph-name="u" unicode="u" horiz-adv-x="516" 
d="M402 500h35v-500h-35v40q-9 -5 -24 -13.5t-58.5 -22t-81.5 -13.5q-100 0 -132 50.5t-32 198.5v260h35v-258q0 -132 24 -175.5t105 -43.5q40 0 81 12.5t62 24.5l21 13v427z" />
    <glyph glyph-name="v" unicode="v" horiz-adv-x="470" 
d="M31 500h41l141 -468h44l145 468h37l-155 -500h-98z" />
    <glyph glyph-name="w" unicode="w" horiz-adv-x="756" 
d="M36 500h37l127 -468h11l148 458h38l148 -458h11l127 468h37l-135 -500h-68l-139 448l-139 -448h-68z" />
    <glyph glyph-name="x" unicode="x" horiz-adv-x="437" 
d="M28 500h41l149 -223l150 223h41l-170 -250l169 -250h-41l-149 223l-149 -223h-41l169 250z" />
    <glyph glyph-name="y" unicode="y" horiz-adv-x="471" 
d="M31 500h37l147 -468h41l148 468h37l-229 -730h-37l72 230h-61z" />
    <glyph glyph-name="z" unicode="z" horiz-adv-x="455" 
d="M42 468v32h371v-32l-326 -436h326v-32h-371v32l327 436h-327z" />
    <glyph glyph-name="braceleft" unicode="{" horiz-adv-x="346" 
d="M168 169q-7 -70 -7 -116q0 -71 31 -106t112 -39l-2 -32q-95 4 -135.5 45.5t-40.5 131.5l7 123q0 48 -23.5 75t-80.5 43v32q57 14 80.5 42t23.5 78l-7 128q0 90 40.5 131.5t135.5 45.5l2 -32q-82 -4 -112.5 -38.5t-30.5 -106.5l7 -119q0 -65 -22 -95.5t-78 -48.5
q56 -18 78 -49t22 -93z" />
    <glyph glyph-name="bar" unicode="|" horiz-adv-x="205" 
d="M85 -230v960h35v-960h-35z" />
    <glyph glyph-name="braceright" unicode="}" horiz-adv-x="346" 
d="M185 53q0 46 -7 116q0 62 22 93t78 49q-56 18 -78 48.5t-22 95.5l7 119q0 72 -30.5 106.5t-112.5 38.5l2 32q95 -4 135.5 -45.5t40.5 -131.5l-7 -128q0 -50 23.5 -78t80.5 -42v-32q-57 -16 -80.5 -43t-23.5 -75l7 -123q0 -90 -40.5 -131.5t-135.5 -45.5l-2 32
q81 4 112 39t31 106z" />
    <glyph glyph-name="asciitilde" unicode="~" 
d="M381 212q-30 0 -103.5 36.5t-91.5 36.5t-43.5 -13t-42.5 -26l-18 -13l-11 32q62 54 112 54q30 0 103.5 -36.5t91.5 -36.5t43.5 13t42.5 26l18 13l11 -31q-62 -55 -112 -55z" />
    <glyph glyph-name="uni00A0" unicode="&#xa0;" horiz-adv-x="220" 
 />
    <glyph glyph-name="exclamdown" unicode="&#xa1;" horiz-adv-x="204" 
d="M121 500v-80h-40v80h40zM119 286v-486h-35v486h35z" />
    <glyph glyph-name="cent" unicode="&#xa2;" 
d="M284 -85v126q-96 3 -135.5 45.5t-39.5 157.5t41 164.5t133 52.5v130h35v-131q40 0 97 -9l19 -3l-2 -33q-80 10 -138 10q-80 0 -112.5 -40.5t-32.5 -139t31.5 -133.5t123.5 -35q52 0 110 6l20 2l2 -35q-74 -8 -117 -9v-126h-35z" />
    <glyph glyph-name="sterling" unicode="&#xa3;" 
d="M312 637q-62 0 -82 -36t-20 -147v-48h182v-32h-182v-340h174l82 16l7 -32l-82 -18h-308v34h92v340h-69v32h69v52q0 126 29.5 168.5t107.5 42.5q34 0 98 -9l22 -3v-32q-87 12 -120 12z" />
    <glyph glyph-name="currency" unicode="&#xa4;" 
d="M280 82q-61 0 -107 38l-70 -71l-26 26l71 70q-38 46 -38 107t38 107l-71 70l26 26l70 -71q46 38 107 38t107 -38l70 71l26 -26l-71 -70q38 -46 38 -107t-38 -107l71 -70l-26 -26l-70 71q-46 -38 -107 -38zM280 118q55 0 94.5 39.5t39.5 94.5t-39.5 94.5t-94.5 39.5
t-94.5 -39.5t-39.5 -94.5t39.5 -94.5t94.5 -39.5z" />
    <glyph glyph-name="yen" unicode="&#xa5;" 
d="M57 331v34h171l-193 295h41l205 -309l202 309h42l-191 -295h168v-34h-190l-13 -20v-95h204v-34h-204v-182h-36v182h-205v34h205v95l-13 20h-193z" />
    <glyph glyph-name="brokenbar" unicode="&#xa6;" horiz-adv-x="209" 
d="M87 730h35v-376h-35v376zM87 146h35v-376h-35v376z" />
    <glyph glyph-name="section" unicode="&#xa7;" horiz-adv-x="487" 
d="M247 628q-140 0 -140 -110q0 -65 32.5 -87.5t117 -35.5t124.5 -42t40 -98q0 -29 -9.5 -60.5t-19.5 -48.5l-10 -18q36 -28 36 -99.5t-44.5 -111.5t-128.5 -40q-44 0 -139 10l-29 3l3 32q110 -14 165 -14q138 0 138 126q0 57 -31.5 75.5t-118.5 30.5t-129 42.5t-42 100.5
q0 30 13.5 60t26.5 45l14 15q-44 33 -44 109q0 148 175 148q63 0 131 -10l25 -3l-2 -32q-106 13 -154 13zM141 389q-44 -53 -44 -105.5t35 -77t114 -36t110 -26.5q30 52 30 108.5t-32.5 78t-108.5 33.5t-104 25z" />
    <glyph glyph-name="dieresis" unicode="&#xa8;" horiz-adv-x="215" 
d="M0 638v62h35v-62h-35zM190 638v62h35v-62h-35z" />
    <glyph glyph-name="copyright" unicode="&#xa9;" horiz-adv-x="647" 
d="M68 434q0 111 73 188.5t182 77.5t182.5 -77.5t73.5 -188.5t-73.5 -188t-182.5 -77t-182 77t-73 188zM100 434q0 -98 63.5 -165.5t159.5 -67.5t160 67.5t64 165.5t-64 166t-160 68t-159.5 -68t-63.5 -166zM323 281q-62 0 -85.5 38.5t-23.5 114t23 114.5t86 39q39 0 64 -5
l10 -2l-1 -32q-41 7 -73 7q-49 0 -63 -28t-14 -92t16 -93t61 -29l73 8l1 -32q-43 -8 -74 -8z" />
    <glyph glyph-name="ordfeminine" unicode="&#xaa;" horiz-adv-x="366" 
d="M270 571v-134q11 -17 37 -23l-2 -28q-32 1 -54 22q-63 -22 -119 -22q-31 0 -50.5 22t-19.5 58q0 70 75 76l102 7v23q0 31 -12.5 44t-39.5 13l-104 -7l-2 29q69 8 109 8t60 -20.5t20 -67.5zM95 464q0 -47 40 -47t88 13l16 5v85l-97 -6q-25 -1 -36 -13t-11 -37z" />
    <glyph glyph-name="guillemotleft" unicode="&#xab;" horiz-adv-x="497" 
d="M215 360l-135 -106l135 -117v-41l-167 138v36l167 129v-39zM422 360l-135 -106l135 -117v-41l-167 138v36l167 129v-39z" />
    <glyph glyph-name="logicalnot" unicode="&#xac;" 
d="M71 332h422v-206h-36v172h-386v34z" />
    <glyph glyph-name="registered" unicode="&#xae;" horiz-adv-x="647" 
d="M68 434q0 111 73 188.5t182 77.5t182.5 -77.5t73.5 -188.5t-73.5 -188t-182.5 -77t-182 77t-73 188zM100 434q0 -98 63.5 -165.5t159.5 -67.5t160 67.5t64 165.5t-64 166t-160 68t-159.5 -68t-63.5 -166zM253 402v-116h-32v295h93q59 0 86 -20t27 -69q0 -72 -59 -87
l65 -119h-35l-66 116h-79zM253 550v-117h80q34 0 48 13t14 46t-19 45.5t-61 12.5h-62z" />
    <glyph glyph-name="macron" unicode="&#xaf;" horiz-adv-x="215" 
d="M-20 642v32h267v-32h-267z" />
    <glyph glyph-name="degree" unicode="&#xb0;" 
d="M144 573q0 61 37.5 98.5t98.5 37.5t98.5 -37.5t37.5 -98.5t-37.5 -98t-98.5 -37t-98.5 37t-37.5 98zM178 573q0 -47 28 -75t74.5 -28t75 28.5t28.5 75t-29 75t-75 28.5t-74 -28.5t-28 -75.5z" />
    <glyph glyph-name="plusminus" unicode="&#xb1;" 
d="M59 308v34h202v138h36v-138h204v-34h-204v-144h-36v144h-202zM59 84h442v-34h-442v34z" />
    <glyph glyph-name="twosuperior" unicode="&#xb2;" horiz-adv-x="280" 
d="M230 478h-194v31l98 107q33 35 43.5 57.5t10.5 45t-16 35.5t-36 13q-35 0 -80 -7l-15 -3l-2 29q51 13 93 13q91 0 91 -85q0 -33 -14.5 -58.5t-49.5 -61.5l-80 -83h151v-33z" />
    <glyph glyph-name="threesuperior" unicode="&#xb3;" horiz-adv-x="280" 
d="M41 788q53 11 100 11t69.5 -19t22.5 -52.5t-11 -52.5q-18 -29 -35 -32q29 -8 42 -24.5t13 -56.5q0 -93 -98 -93q-48 0 -91 8l-16 3l3 31q54 -9 95 -9t56.5 16t15.5 43q0 62 -60 62h-65v33h65q18 0 34.5 19t16.5 44q0 47 -58 47q-46 0 -82 -6l-14 -3z" />
    <glyph glyph-name="acute" unicode="&#xb4;" horiz-adv-x="268" 
d="M40 636l192 96l16 -31l-193 -92z" />
    <glyph glyph-name="mu" unicode="&#xb5;" 
d="M426 500h35v-500h-35v40q-9 -5 -24 -13.5t-58.5 -22t-81.5 -13.5q-96 0 -129 45v-266h-35v730h35v-258q0 -132 24 -175.5t105 -43.5q40 0 81 12.5t62 24.5l21 13v427z" />
    <glyph glyph-name="paragraph" unicode="&#xb6;" horiz-adv-x="589" 
d="M421 0v667h-152v-667h-36v350h-7q-79 0 -132.5 48.5t-53.5 125.5t53.5 126.5t132.5 49.5h328v-33h-97v-667h-36z" />
    <glyph glyph-name="periodcentered" unicode="&#xb7;" horiz-adv-x="191" 
d="M76 270v80h40v-80h-40z" />
    <glyph glyph-name="cedilla" unicode="&#xb8;" horiz-adv-x="263" 
d="M213 -127q0 -74 -82 -74l-81 4l2 28q44 -4 78 -4q48 0 48 46q0 42 -48 42h-54v86h33v-58q56 0 80 -15t24 -55z" />
    <glyph glyph-name="onesuperior" unicode="&#xb9;" horiz-adv-x="280" 
d="M180 790v-312h-35v273l-82 -56l-17 28l99 67h35z" />
    <glyph glyph-name="ordmasculine" unicode="&#xba;" horiz-adv-x="353" 
d="M177 659q58 0 85.5 -32.5t27.5 -102.5q0 -138 -113 -138q-115 0 -115 136.5t115 136.5zM177 418q43 0 61 24.5t18 81.5t-18 80t-61 23t-62 -23.5t-19 -80t19 -81t62 -24.5z" />
    <glyph glyph-name="guillemotright" unicode="&#xbb;" horiz-adv-x="497" 
d="M417 254l-135 106v39l167 -129v-36l-167 -138v41zM210 254l-135 106v39l167 -129v-36l-167 -138v41z" />
    <glyph glyph-name="onequarter" unicode="&#xbc;" horiz-adv-x="525" 
d="M183 790v-312h-35v273l-82 -56l-17 28l99 67h35zM39 28l392 631l30 -19l-392 -630zM414 -100v57h-146v31l89 224h38l-87 -222h106v88h36v-88h37v-33h-37v-57h-36z" />
    <glyph glyph-name="onehalf" unicode="&#xbd;" horiz-adv-x="520" 
d="M190 790v-312h-35v273l-82 -56l-17 28l99 67h35zM36 28l392 631l30 -19l-392 -630zM469 -100h-194v31l98 107q33 35 43.5 57.5t10.5 45t-16 35.5t-36 13q-35 0 -80 -7l-15 -3l-2 29q51 13 93 13q91 0 91 -85q0 -33 -14.5 -58.5t-49.5 -61.5l-80 -83h151v-33z" />
    <glyph glyph-name="threequarters" unicode="&#xbe;" horiz-adv-x="543" 
d="M58 28l392 631l30 -19l-392 -630zM62 788q53 11 100 11t69.5 -19t22.5 -52.5t-11 -52.5q-15 -25 -35 -32q29 -8 42 -25t13 -56q0 -93 -98 -93q-48 0 -91 8l-16 3l3 31q54 -9 95 -9t56.5 16t15.5 43q0 62 -60 62h-65v33h65q18 0 34.5 19t16.5 44q0 47 -58 47q-46 0 -82 -6
l-14 -3zM433 -100v57h-146v31l89 224h38l-87 -222h106v88h36v-88h37v-33h-37v-57h-36z" />
    <glyph glyph-name="questiondown" unicode="&#xbf;" horiz-adv-x="447" 
d="M43 -50q0 61 18.5 93.5t68 76t65 58.5t31.5 42t16 53v38h34q1 -22 1 -43t-8 -42.5t-27 -43.5q-30 -34 -79 -78t-67 -74t-18 -80q0 -69 40.5 -97t124.5 -28q43 0 131 21l30 7l5 -34q-112 -27 -166 -27q-99 0 -149.5 36.5t-50.5 121.5zM279 500v-80h-40v80h40z" />
    <glyph glyph-name="Agrave" unicode="&#xc0;" horiz-adv-x="592" 
d="M28 0l215 700h106l215 -700h-36l-65 215h-334l-65 -215h-36zM268 666l-128 -417h312l-128 417h-56zM193 922l192 -96l-15 -27l-193 92z" />
    <glyph glyph-name="Aacute" unicode="&#xc1;" horiz-adv-x="592" 
d="M28 0l215 700h106l215 -700h-36l-65 215h-334l-65 -215h-36zM268 666l-128 -417h312l-128 417h-56zM202 826l192 96l16 -31l-193 -92z" />
    <glyph glyph-name="Acircumflex" unicode="&#xc2;" horiz-adv-x="592" 
d="M28 0l215 700h106l215 -700h-36l-65 215h-334l-65 -215h-36zM268 666l-128 -417h312l-128 417h-56zM146 809l134 125h30l134 -125h-45l-104 96l-103 -96h-46z" />
    <glyph glyph-name="Atilde" unicode="&#xc3;" horiz-adv-x="592" 
d="M28 0l215 700h106l215 -700h-36l-65 215h-334l-65 -215h-36zM268 666l-128 -417h312l-128 417h-56zM447 885q-39 -52 -66 -52t-87.5 30t-72.5 30q-22 0 -58 -39l-12 -13l-10 29q44 54 77 54q23 0 83.5 -29.5t72.5 -29.5q18 0 51 36l11 12z" />
    <glyph glyph-name="Adieresis" unicode="&#xc4;" horiz-adv-x="592" 
d="M28 0l215 700h106l215 -700h-36l-65 215h-334l-65 -215h-36zM268 666l-128 -417h312l-128 417h-56zM180 838v62h35v-62h-35zM376 838v62h35v-62h-35z" />
    <glyph glyph-name="Aring" unicode="&#xc5;" horiz-adv-x="592" 
d="M364.5 826.5q26.5 -24.5 26.5 -71t-37 -72.5l210 -683h-36l-65 215h-334l-65 -215h-36l209 681q-40 24 -40 72.5t26.5 73t70.5 24.5t70.5 -24.5zM268 666l-128 -417h312l-128 417h-56zM230 759q0 -48 40 -59h47q41 11 41 59q0 30 -17 46t-47 16t-47 -16t-17 -46z" />
    <glyph glyph-name="AE" unicode="&#xc6;" horiz-adv-x="879" 
d="M419 0v215h-276l-78 -215h-40l251 700h552v-34h-373v-288h313v-34h-313v-310h373v-34h-409zM419 249v417h-115l-149 -417h264z" />
    <glyph glyph-name="Ccedilla" unicode="&#xc7;" horiz-adv-x="545" 
d="M431 -127q0 -74 -82 -74l-81 4l2 28q44 -4 78 -4q48 0 48 46q0 42 -48 42h-54v77q-108 6 -161 67q-48 56 -61 169q-5 51 -5 120.5t5.5 120.5t21 99t42.5 77q60 64 180 64q88 0 185 -19l-3 -35q-96 20 -166.5 20t-109.5 -16t-61.5 -41.5t-35 -70t-16.5 -89.5t-4 -111
t4 -111t17 -88t36 -68q51 -55 154 -55q78 0 182 20l3 -34q-90 -19 -174 -20v-48q56 0 80 -15t24 -55z" />
    <glyph glyph-name="Egrave" unicode="&#xc8;" horiz-adv-x="552" 
d="M92 0v700h409v-34h-373v-291h313v-34h-313v-307h373v-34h-409zM205 922l192 -96l-15 -27l-193 92z" />
    <glyph glyph-name="Eacute" unicode="&#xc9;" horiz-adv-x="552" 
d="M92 0v700h409v-34h-373v-291h313v-34h-313v-307h373v-34h-409zM192 826l192 96l16 -31l-193 -92z" />
    <glyph glyph-name="Ecircumflex" unicode="&#xca;" horiz-adv-x="552" 
d="M92 0v700h409v-34h-373v-291h313v-34h-313v-307h373v-34h-409zM142 809l134 125h30l134 -125h-45l-104 96l-103 -96h-46z" />
    <glyph glyph-name="Edieresis" unicode="&#xcb;" horiz-adv-x="552" 
d="M92 0v700h409v-34h-373v-291h313v-34h-313v-307h373v-34h-409zM180 838v62h35v-62h-35zM376 838v62h35v-62h-35z" />
    <glyph glyph-name="Igrave" unicode="&#xcc;" horiz-adv-x="220" 
d="M92 0v700h36v-700h-36zM-2 922l192 -96l-15 -27l-193 92z" />
    <glyph glyph-name="Iacute" unicode="&#xcd;" horiz-adv-x="220" 
d="M92 0v700h36v-700h-36zM17 826l192 96l16 -31l-193 -92z" />
    <glyph glyph-name="Icircumflex" unicode="&#xce;" horiz-adv-x="220" 
d="M92 0v700h36v-700h-36zM-45 809l134 125h30l134 -125h-45l-104 96l-103 -96h-46z" />
    <glyph glyph-name="Idieresis" unicode="&#xcf;" horiz-adv-x="220" 
d="M92 0v700h36v-700h-36zM-6 838v62h35v-62h-35zM190 838v62h35v-62h-35z" />
    <glyph glyph-name="Eth" unicode="&#xd0;" horiz-adv-x="651" 
d="M17 334v34h77v332h260q64 0 110.5 -28t73.5 -77q50 -93 50 -235q0 -141 -51 -245q-26 -53 -73 -84t-110 -31h-260v334h-77zM550 360q0 60 -10 111.5t-31.5 97t-61 71.5t-93.5 26h-224v-298h177v-34h-177v-300h224q54 0 93.5 29t61 78.5t31.5 104t10 114.5z" />
    <glyph glyph-name="Ntilde" unicode="&#xd1;" horiz-adv-x="665" 
d="M92 0v700h85l333 -666h27v666h36v-700h-85l-334 666h-26v-666h-36zM485 885q-39 -52 -66 -52t-87.5 30t-72.5 30q-22 0 -58 -39l-12 -13l-10 29q44 54 77 54q23 0 83.5 -29.5t72.5 -29.5q18 0 51 36l11 12z" />
    <glyph glyph-name="Ograve" unicode="&#xd2;" horiz-adv-x="666" 
d="M216 45q46 -20 117.5 -20t117 18.5t70 61t33.5 98.5t9 144q0 168 -48.5 248t-181.5 80q-139 0 -187 -87q-24 -44 -33.5 -100.5t-9.5 -141t9 -139.5t33.5 -98.5t70.5 -63.5zM118 82q-30 48 -41.5 110.5t-11.5 154.5q0 184 58 273t210 89t210 -88.5t58 -276.5t-56.5 -270.5
t-213.5 -82.5t-213 91zM242 922l192 -96l-15 -27l-193 92z" />
    <glyph glyph-name="Oacute" unicode="&#xd3;" horiz-adv-x="666" 
d="M216 45q46 -20 117.5 -20t117 18.5t70 61t33.5 98.5t9 144q0 168 -48.5 248t-181.5 80q-139 0 -187 -87q-24 -44 -33.5 -100.5t-9.5 -141t9 -139.5t33.5 -98.5t70.5 -63.5zM118 82q-30 48 -41.5 110.5t-11.5 154.5q0 184 58 273t210 89t210 -88.5t58 -276.5t-56.5 -270.5
t-213.5 -82.5t-213 91zM219 826l192 96l16 -31l-193 -92z" />
    <glyph glyph-name="Ocircumflex" unicode="&#xd4;" horiz-adv-x="666" 
d="M216 45q46 -20 117.5 -20t117 18.5t70 61t33.5 98.5t9 144q0 168 -48.5 248t-181.5 80q-139 0 -187 -87q-24 -44 -33.5 -100.5t-9.5 -141t9 -139.5t33.5 -98.5t70.5 -63.5zM118 82q-30 48 -41.5 110.5t-11.5 154.5q0 184 58 273t210 89t210 -88.5t58 -276.5t-56.5 -270.5
t-213.5 -82.5t-213 91zM184 809l134 125h30l134 -125h-45l-104 96l-103 -96h-46z" />
    <glyph glyph-name="Otilde" unicode="&#xd5;" horiz-adv-x="666" 
d="M216 45q46 -20 117.5 -20t117 18.5t70 61t33.5 98.5t9 144q0 168 -48.5 248t-181.5 80q-139 0 -187 -87q-24 -44 -33.5 -100.5t-9.5 -141t9 -139.5t33.5 -98.5t70.5 -63.5zM118 82q-30 48 -41.5 110.5t-11.5 154.5q0 184 58 273t210 89t210 -88.5t58 -276.5t-56.5 -270.5
t-213.5 -82.5t-213 91zM482 885q-39 -52 -66 -52t-87.5 30t-72.5 30q-22 0 -58 -39l-12 -13l-10 29q44 54 77 54q23 0 83.5 -29.5t71.5 -29.5q21 0 52 36l11 12z" />
    <glyph glyph-name="Odieresis" unicode="&#xd6;" horiz-adv-x="666" 
d="M216 45q46 -20 117.5 -20t117 18.5t70 61t33.5 98.5t9 144q0 168 -48.5 248t-181.5 80q-139 0 -187 -87q-24 -44 -33.5 -100.5t-9.5 -141t9 -139.5t33.5 -98.5t70.5 -63.5zM118 82q-30 48 -41.5 110.5t-11.5 154.5q0 184 58 273t210 89t210 -88.5t58 -276.5t-56.5 -270.5
t-213.5 -82.5t-213 91zM218 838v62h35v-62h-35zM414 838v62h35v-62h-35z" />
    <glyph glyph-name="multiply" unicode="&#xd7;" 
d="M105 450l175 -176l175 176l24 -24l-176 -175l176 -175l-24 -24l-175 176l-175 -176l-24 24l176 175l-176 175z" />
    <glyph glyph-name="Oslash" unicode="&#xd8;" horiz-adv-x="666" 
d="M333 -9q-80 0 -134 23l-58 -123l-30 11l59 127q-59 39 -82 116t-23 202q0 184 58 273t210 89q86 0 142 -29l53 112l30 -12l-55 -118q54 -41 76 -118.5t22 -196.5q0 -191 -56.5 -273.5t-211.5 -82.5zM112.5 487.5q-9.5 -56.5 -9.5 -155t18 -166.5t65 -103l274 584
q-50 28 -123.5 28t-119.5 -21t-70.5 -65.5t-34 -101zM214 46q46 -21 118.5 -21t118 18.5t70 61t33.5 98.5t9 144q0 212 -77 280z" />
    <glyph glyph-name="Ugrave" unicode="&#xd9;" horiz-adv-x="638" 
d="M124 196q0 -91 49 -131t144.5 -40t146 39.5t50.5 131.5v504h36v-504q0 -109 -59.5 -157t-173 -48t-171.5 48t-58 157v504h36v-504zM226 922l192 -96l-15 -27l-193 92z" />
    <glyph glyph-name="Uacute" unicode="&#xda;" horiz-adv-x="638" 
d="M124 196q0 -91 49 -131t144.5 -40t146 39.5t50.5 131.5v504h36v-504q0 -109 -59.5 -157t-173 -48t-171.5 48t-58 157v504h36v-504zM215 826l192 96l16 -31l-193 -92z" />
    <glyph glyph-name="Ucircumflex" unicode="&#xdb;" horiz-adv-x="638" 
d="M124 196q0 -91 49 -131t144.5 -40t146 39.5t50.5 131.5v504h36v-504q0 -109 -59.5 -157t-173 -48t-171.5 48t-58 157v504h36v-504zM169 809l134 125h30l134 -125h-45l-104 96l-103 -96h-46z" />
    <glyph glyph-name="Udieresis" unicode="&#xdc;" horiz-adv-x="638" 
d="M124 196q0 -91 49 -131t144.5 -40t146 39.5t50.5 131.5v504h36v-504q0 -109 -59.5 -157t-173 -48t-171.5 48t-58 157v504h36v-504zM204 838v62h35v-62h-35zM400 838v62h35v-62h-35z" />
    <glyph glyph-name="Yacute" unicode="&#xdd;" horiz-adv-x="526" 
d="M281 0h-36v301l-228 399h42l204 -359l204 359h42l-228 -399v-301zM190 826l192 96l16 -31l-193 -92z" />
    <glyph glyph-name="Thorn" unicode="&#xde;" horiz-adv-x="601" 
d="M347 169q169 0 169 198q0 92 -39.5 134.5t-129.5 42.5h-219v-375h219zM347 135h-219v-135h-36v700h36v-122h219q108 0 157.5 -51t49.5 -160q0 -232 -207 -232z" />
    <glyph glyph-name="germandbls" unicode="&#xdf;" horiz-adv-x="549" 
d="M114 0h-35v561q0 100 39.5 139t133.5 39t131.5 -32t37.5 -104q0 -52 -16.5 -82t-55 -47.5t-50 -26.5t-11.5 -25t17 -29.5t80.5 -46.5t92 -66.5t28.5 -93.5q0 -103 -46 -149t-154 -46q-35 0 -95 7l-20 3l2 33q77 -9 113 -9q90 0 126 37.5t36 118.5q0 53 -24.5 81t-90 61.5
t-84 51.5t-18.5 46t17.5 43.5t54 32.5t48.5 40t12 73t-29 72.5t-103.5 22.5t-105.5 -31.5t-31 -125.5v-548z" />
    <glyph glyph-name="agrave" unicode="&#xe0;" horiz-adv-x="495" 
d="M411 353v-288q4 -36 75 -42l-2 -31q-73 0 -103 42q-102 -43 -202 -43q-62 0 -96.5 37t-34.5 105.5t33 104.5t105 43l190 20v52q0 64 -27.5 93t-83.5 29q-57 0 -158 -13l-31 -4l-3 33q112 18 192 18q146 0 146 -156zM109 217q-24 -27 -24 -81t24.5 -83.5t68.5 -29.5
t93 10.5t77 20.5l28 10v205l-186 -19q-57 -6 -81 -33zM149 732l192 -96l-15 -27l-193 92z" />
    <glyph glyph-name="aacute" unicode="&#xe1;" horiz-adv-x="495" 
d="M411 353v-288q4 -36 75 -42l-2 -31q-73 0 -103 42q-102 -43 -202 -43q-62 0 -96.5 37t-34.5 105.5t33 104.5t105 43l190 20v52q0 64 -27.5 93t-83.5 29q-57 0 -158 -13l-31 -4l-3 33q112 18 192 18q146 0 146 -156zM109 217q-24 -27 -24 -81t24.5 -83.5t68.5 -29.5
t93 10.5t77 20.5l28 10v205l-186 -19q-57 -6 -81 -33zM132 636l192 96l16 -31l-193 -92z" />
    <glyph glyph-name="acircumflex" unicode="&#xe2;" horiz-adv-x="495" 
d="M411 353v-288q4 -36 75 -42l-2 -31q-73 0 -103 42q-102 -43 -202 -43q-62 0 -96.5 37t-34.5 105.5t33 104.5t105 43l190 20v52q0 64 -27.5 93t-83.5 29q-57 0 -158 -13l-31 -4l-3 33q112 18 192 18q146 0 146 -156zM109 217q-24 -27 -24 -81t24.5 -83.5t68.5 -29.5
t93 10.5t77 20.5l28 10v205l-186 -19q-57 -6 -81 -33zM103 600l121 132h28l122 -132h-43l-92 100l-93 -100h-43z" />
    <glyph glyph-name="atilde" unicode="&#xe3;" horiz-adv-x="495" 
d="M411 353v-288q4 -36 75 -42l-2 -31q-73 0 -103 42q-102 -43 -202 -43q-62 0 -96.5 37t-34.5 105.5t33 104.5t105 43l190 20v52q0 64 -27.5 93t-83.5 29q-57 0 -158 -13l-31 -4l-3 33q112 18 192 18q146 0 146 -156zM109 217q-24 -27 -24 -81t24.5 -83.5t68.5 -29.5
t93 10.5t77 20.5l28 10v205l-186 -19q-57 -6 -81 -33zM392 673q-42 -43 -68 -43t-81.5 27t-67.5 27q-22 0 -60 -34l-13 -11l-10 29q49 47 82 47q21 0 76.5 -26.5t67.5 -26.5q20 0 54 30l11 11z" />
    <glyph glyph-name="adieresis" unicode="&#xe4;" horiz-adv-x="495" 
d="M411 353v-288q4 -36 75 -42l-2 -31q-73 0 -103 42q-102 -43 -202 -43q-62 0 -96.5 37t-34.5 105.5t33 104.5t105 43l190 20v52q0 64 -27.5 93t-83.5 29q-57 0 -158 -13l-31 -4l-3 33q112 18 192 18q146 0 146 -156zM109 217q-24 -27 -24 -81t24.5 -83.5t68.5 -29.5
t93 10.5t77 20.5l28 10v205l-186 -19q-57 -6 -81 -33zM132 638v62h35v-62h-35zM322 638v62h35v-62h-35z" />
    <glyph glyph-name="aring" unicode="&#xe5;" horiz-adv-x="495" 
d="M411 353v-288q4 -36 75 -42l-2 -31q-73 0 -103 42q-102 -43 -202 -43q-62 0 -96.5 37t-34.5 105.5t33 104.5t105 43l190 20v52q0 64 -27.5 93t-83.5 29q-57 0 -158 -13l-31 -4l-3 33q112 18 192 18q146 0 146 -156zM109 217q-24 -27 -24 -81t24.5 -83.5t68.5 -29.5
t93 10.5t77 20.5l28 10v205l-186 -19q-57 -6 -81 -33zM153 650q0 40 28 67.5t68 27.5t67 -27.5t27 -67.5t-27 -67.5t-67.5 -27.5t-68 27.5t-27.5 67.5zM187 650q0 -26 18 -45t43.5 -19t43.5 19t18 45t-18 44.5t-43.5 18.5t-43.5 -18.5t-18 -44.5z" />
    <glyph glyph-name="ae" unicode="&#xe6;" horiz-adv-x="818" 
d="M715 30l30 2l2 -32q-112 -9 -185 -9q-98 0 -143 58l-38 -16q-93 -42 -206 -42q-127 0 -127 146q0 80 39 107.5t146 41.5l143 15v52q0 64 -27.5 93t-83.5 29q-51 0 -157 -7l-31 -2l-2 33q110 10 190 10q115 0 139 -96q49 96 172 96q95 0 142.5 -57t47.5 -183v-33h-355
q0 -108 34 -160.5t113 -52.5t157 7zM109 52.5q24 -29.5 66.5 -29.5t97.5 12q77 17 131 39q-30 59 -30 194l-184 -18q-55 -5 -80 -32t-25 -81.5t24 -84zM411 268h318q0 113 -36.5 161t-116.5 48q-165 0 -165 -209z" />
    <glyph glyph-name="ccedilla" unicode="&#xe7;" horiz-adv-x="429" 
d="M348 -127q0 -74 -82 -74l-81 4l2 28q44 -4 78 -4q48 0 48 46q0 42 -48 42h-54v79q-89 11 -120 70t-31 197t46 193t159 55l120 -10l-2 -32q-80 10 -118 10q-95 0 -131.5 -48t-36.5 -175.5t33 -179t135 -51.5l120 9l2 -32q-84 -9 -110 -9t-33 1v-49q56 0 80 -15t24 -55z
" />
    <glyph glyph-name="egrave" unicode="&#xe8;" horiz-adv-x="502" 
d="M399 30l30 2l2 -32q-112 -9 -185 -9q-106 1 -147 64.5t-41 194.5q0 259 202 259q95 0 142.5 -57t47.5 -183v-33h-355q0 -108 34 -160.5t113 -52.5t157 7zM95 268h318q0 113 -36.5 161t-116.5 48q-165 0 -165 -209zM144 733l192 -96l-15 -27l-193 92z" />
    <glyph glyph-name="eacute" unicode="&#xe9;" horiz-adv-x="502" 
d="M399 30l30 2l2 -32q-112 -9 -185 -9q-106 1 -147 64.5t-41 194.5q0 259 202 259q95 0 142.5 -57t47.5 -183v-33h-355q0 -108 34 -160.5t113 -52.5t157 7zM95 268h318q0 113 -36.5 161t-116.5 48q-165 0 -165 -209zM171 636l192 96l16 -31l-193 -92z" />
    <glyph glyph-name="ecircumflex" unicode="&#xea;" horiz-adv-x="502" 
d="M399 30l30 2l2 -32q-112 -9 -185 -9q-106 1 -147 64.5t-41 194.5q0 259 202 259q95 0 142.5 -57t47.5 -183v-33h-355q0 -108 34 -160.5t113 -52.5t157 7zM95 268h318q0 113 -36.5 161t-116.5 48q-165 0 -165 -209zM128 600l121 132h28l122 -132h-43l-92 100l-93 -100h-43
z" />
    <glyph glyph-name="edieresis" unicode="&#xeb;" horiz-adv-x="502" 
d="M399 30l30 2l2 -32q-112 -9 -185 -9q-106 1 -147 64.5t-41 194.5q0 259 202 259q95 0 142.5 -57t47.5 -183v-33h-355q0 -108 34 -160.5t113 -52.5t157 7zM95 268h318q0 113 -36.5 161t-116.5 48q-165 0 -165 -209zM144 638v62h35v-62h-35zM334 638v62h35v-62h-35z" />
    <glyph glyph-name="igrave" unicode="&#xec;" horiz-adv-x="193" 
d="M79 0v500h35v-500h-35zM-44 732l192 -96l-15 -27l-193 92z" />
    <glyph glyph-name="iacute" unicode="&#xed;" horiz-adv-x="193" 
d="M43 636l192 96l16 -31l-193 -92zM79 500h35v-500h-35v500z" />
    <glyph glyph-name="icircumflex" unicode="&#xee;" horiz-adv-x="193" 
d="M79 500h35v-500h-35v500zM-39 600l121 132h28l122 -132h-43l-92 100l-93 -100h-43z" />
    <glyph glyph-name="idieresis" unicode="&#xef;" horiz-adv-x="193" 
d="M79 500h35v-500h-35v500zM-19 638v62h35v-62h-35zM171 638v62h35v-62h-35z" />
    <glyph glyph-name="eth" unicode="&#xf0;" horiz-adv-x="535" 
d="M303 657q172 -111 172 -307t-49.5 -277.5t-165.5 -81.5q-101 0 -158 58.5t-57 159t55 158.5t149 58q35 0 82 -11t77 -22l30 -11q-5 156 -167 255l-119 -80l-20 27l106 72q-60 31 -133 53l13 31q87 -26 152 -63l102 69l20 -27zM439 346q-116 45 -191.5 45t-121 -49
t-45.5 -134t46.5 -134t139 -49t132 69t40.5 252z" />
    <glyph glyph-name="ntilde" unicode="&#xf1;" horiz-adv-x="527" 
d="M79 0v500h35v-40l24 12q25 12 69 24.5t82 12.5q100 0 132 -50.5t32 -198.5v-260h-35v258q0 132 -24 175.5t-105 43.5q-40 0 -92.5 -16t-82.5 -34v-427h-35zM425 673q-42 -43 -68 -43t-81.5 27t-67.5 27q-22 0 -60 -34l-13 -11l-10 29q49 47 82 47q21 0 76.5 -26.5
t66.5 -26.5q21 0 54 30l12 11z" />
    <glyph glyph-name="ograve" unicode="&#xf2;" horiz-adv-x="526" 
d="M263 509q111 0 157 -56t46 -202t-41 -203t-162 -57t-162 57t-41 203t46 202t157 56zM263 23q56 0 88.5 11.5t50 43t22.5 71t5 110.5q0 126 -35 172t-131 46t-131 -46t-35 -172q0 -71 5 -110.5t22.5 -71t50 -43t88.5 -11.5zM170 732l192 -96l-15 -27l-193 92z" />
    <glyph glyph-name="oacute" unicode="&#xf3;" horiz-adv-x="526" 
d="M263 509q111 0 157 -56t46 -202t-41 -203t-162 -57t-162 57t-41 203t46 202t157 56zM263 23q56 0 88.5 11.5t50 43t22.5 71t5 110.5q0 126 -35 172t-131 46t-131 -46t-35 -172q0 -71 5 -110.5t22.5 -71t50 -43t88.5 -11.5zM179 636l192 96l16 -31l-193 -92z" />
    <glyph glyph-name="ocircumflex" unicode="&#xf4;" horiz-adv-x="526" 
d="M263 509q111 0 157 -56t46 -202t-41 -203t-162 -57t-162 57t-41 203t46 202t157 56zM263 23q56 0 88.5 11.5t50 43t22.5 71t5 110.5q0 126 -35 172t-131 46t-131 -46t-35 -172q0 -71 5 -110.5t22.5 -71t50 -43t88.5 -11.5zM128 600l121 132h28l122 -132h-43l-92 100
l-93 -100h-43z" />
    <glyph glyph-name="otilde" unicode="&#xf5;" horiz-adv-x="526" 
d="M263 509q111 0 157 -56t46 -202t-41 -203t-162 -57t-162 57t-41 203t46 202t157 56zM263 23q56 0 88.5 11.5t50 43t22.5 71t5 110.5q0 126 -35 172t-131 46t-131 -46t-35 -172q0 -71 5 -110.5t22.5 -71t50 -43t88.5 -11.5zM414 673q-42 -43 -68 -43t-81.5 27t-67.5 27
q-22 0 -60 -34l-13 -11l-10 29q49 47 82 47q21 0 76.5 -26.5t67.5 -26.5q20 0 54 30l11 11z" />
    <glyph glyph-name="odieresis" unicode="&#xf6;" horiz-adv-x="526" 
d="M263 509q111 0 157 -56t46 -202t-41 -203t-162 -57t-162 57t-41 203t46 202t157 56zM263 23q56 0 88.5 11.5t50 43t22.5 71t5 110.5q0 126 -35 172t-131 46t-131 -46t-35 -172q0 -71 5 -110.5t22.5 -71t50 -43t88.5 -11.5zM146 638v62h35v-62h-35zM336 638v62h35v-62h-35
z" />
    <glyph glyph-name="divide" unicode="&#xf7;" 
d="M58 234v34h444v-34h-444zM261 383v80h38v-80h-38zM261 39v80h38v-80h-38z" />
    <glyph glyph-name="oslash" unicode="&#xf8;" horiz-adv-x="526" 
d="M263 509q53 0 86 -11l44 107l30 -11l-45 -107q46 -25 67 -79.5t21 -148.5q0 -154 -41 -211t-162 -57q-49 0 -84 9l-46 -114l-30 10l46 113q-51 23 -70 80.5t-19 182.5t46 181t157 56zM263 477q-96 0 -131 -46t-35 -159t13 -162.5t53 -69.5l174 428q-30 9 -74 9zM191 30
q27 -7 77.5 -7t83 11.5t50 43t22.5 71t5 117t-14 123.5t-49 67z" />
    <glyph glyph-name="ugrave" unicode="&#xf9;" horiz-adv-x="516" 
d="M402 500h35v-500h-35v40q-9 -5 -24 -13.5t-58.5 -22t-81.5 -13.5q-100 0 -132 50.5t-32 198.5v260h35v-258q0 -132 24 -175.5t105 -43.5q40 0 81 12.5t62 24.5l21 13v427zM141 732l192 -96l-15 -27l-193 92z" />
    <glyph glyph-name="uacute" unicode="&#xfa;" horiz-adv-x="516" 
d="M437 500v-500h-35v40l-22 -12q-22 -13 -63 -25t-79 -12q-100 0 -132 50.5t-32 198.5v260h35v-258q0 -132 24 -175.5t105 -43.5q40 0 90.5 16.5t73.5 33.5v427h35zM172 636l192 96l16 -31l-193 -92z" />
    <glyph glyph-name="ucircumflex" unicode="&#xfb;" horiz-adv-x="516" 
d="M437 500v-500h-35v40l-22 -12q-22 -13 -63 -25t-79 -12q-100 0 -132 50.5t-32 198.5v260h35v-258q0 -132 24 -175.5t105 -43.5q40 0 90.5 16.5t73.5 33.5v427h35zM121 600l121 132h28l122 -132h-43l-92 100l-93 -100h-43z" />
    <glyph glyph-name="udieresis" unicode="&#xfc;" horiz-adv-x="516" 
d="M437 500v-500h-35v40l-22 -12q-22 -13 -63 -25t-79 -12q-100 0 -132 50.5t-32 198.5v260h35v-258q0 -132 24 -175.5t105 -43.5q40 0 90.5 16.5t73.5 33.5v427h35zM149 638v62h35v-62h-35zM339 638v62h35v-62h-35z" />
    <glyph glyph-name="yacute" unicode="&#xfd;" horiz-adv-x="471" 
d="M31 500h37l147 -468h41l148 468h37l-229 -730h-37l72 230h-61zM175 636l192 96l16 -31l-193 -92z" />
    <glyph glyph-name="thorn" unicode="&#xfe;" horiz-adv-x="515" 
d="M114 29q78 -6 126.5 -6t87 13.5t58.5 45.5t26.5 72t6.5 105q0 119 -26.5 168.5t-106.5 49.5q-40 0 -83 -10t-66 -20l-23 -10v-408zM114 469q83 40 177 40t129.5 -56.5t35.5 -197.5t-47 -202.5t-181 -61.5l-114 6v-227h-35v960h35v-261z" />
    <glyph glyph-name="ydieresis" unicode="&#xff;" horiz-adv-x="471" 
d="M31 500h37l147 -468h41l148 468h37l-229 -730h-37l72 230h-61zM121 638v62h35v-62h-35zM311 638v62h35v-62h-35z" />
    <glyph glyph-name="Amacron" unicode="&#x100;" horiz-adv-x="592" 
d="M28 0l215 700h106l215 -700h-36l-65 215h-334l-65 -215h-36zM268 666l-128 -417h312l-128 417h-56zM153 832v32h287v-32h-287z" />
    <glyph glyph-name="amacron" unicode="&#x101;" horiz-adv-x="495" 
d="M411 353v-288q4 -36 75 -42l-2 -31q-73 0 -103 42q-102 -43 -202 -43q-62 0 -96.5 37t-34.5 105.5t33 104.5t105 43l190 20v52q0 64 -27.5 93t-83.5 29q-57 0 -158 -13l-31 -4l-3 33q112 18 192 18q146 0 146 -156zM109 217q-24 -27 -24 -81t24.5 -83.5t68.5 -29.5
t93 10.5t77 20.5l28 10v205l-186 -19q-57 -6 -81 -33zM115 642v32h267v-32h-267z" />
    <glyph glyph-name="Abreve" unicode="&#x102;" horiz-adv-x="592" 
d="M28 0l215 700h106l215 -700h-36l-65 215h-334l-65 -215h-36zM268 666l-128 -417h312l-128 417h-56zM157 924h35q0 -40 30 -63.5t73 -23.5t73 23.5t30 63.5h35q0 -54 -40 -86.5t-98 -32.5t-98 32.5t-40 86.5z" />
    <glyph glyph-name="abreve" unicode="&#x103;" horiz-adv-x="497" 
d="M411 353v-287q4 -36 75 -42l-2 -32q-75 0 -103 40l-27 -10q-26 -10 -77.5 -20.5t-106.5 -10.5t-88.5 37.5t-33.5 105.5t32.5 104t105.5 43l190 20v52q0 64 -27.5 93t-92 29t-180.5 -17l-3 33l30 5q90 13 162 13q146 0 146 -156zM176 23q99 0 200 40v205l-186 -18
q-105 -11 -105 -113q0 -54 24.5 -84t66.5 -30zM114 723h35q0 -42 27.5 -69t75.5 -27t75.5 27t27.5 69h35q0 -56 -38 -92t-100 -36t-100 36t-38 92z" />
    <glyph glyph-name="Aogonek" unicode="&#x104;" horiz-adv-x="592" 
d="M516.5 -52.5q-34.5 -43.5 -34.5 -64t13 -35t34 -14.5l56 7l4 -33q-36 -8 -67.5 -8t-54 22t-22.5 61.5t81 120.5l-63 211h-334l-65 -215h-36l215 700h106l215 -700h-2q-11 -9 -45.5 -52.5zM268 666l-128 -417h312l-128 417h-56z" />
    <glyph glyph-name="aogonek" unicode="&#x105;" horiz-adv-x="494" 
d="M411 353v-288q4 -36 75 -42l-2 -31q-11 0 -31 2q-74 -83 -74 -107t13 -38.5t34 -14.5l56 7l4 -33q-36 -8 -67.5 -8t-54 22t-22.5 54.5t30 70.5t49 55q-26 12 -40 32q-102 -43 -202 -43q-62 0 -96.5 37t-34.5 105.5t33 104.5t105 43l190 20v52q0 64 -27.5 93t-83.5 29
q-57 0 -158 -13l-31 -4l-3 33q112 18 192 18q146 0 146 -156zM109 217q-24 -27 -24 -81t24.5 -83.5t68.5 -29.5t93 10.5t77 20.5l28 10v205l-186 -19q-57 -6 -81 -33z" />
    <glyph glyph-name="Cacute" unicode="&#x106;" horiz-adv-x="545" 
d="M501 11q-100 -20 -180.5 -20t-130 23.5t-76.5 72.5t-37 110t-10 141t5.5 131t21 99t42.5 77q60 64 180 64q88 0 185 -19l-3 -35q-96 20 -166.5 20t-109.5 -16t-61.5 -41.5t-35 -70t-16.5 -89.5t-4 -111t4 -111t17 -88t36 -68q51 -55 154 -55q78 0 182 20zM205 826l192 96
l16 -31l-193 -92z" />
    <glyph glyph-name="cacute" unicode="&#x107;" horiz-adv-x="429" 
d="M265 477q-95 0 -131.5 -48t-36.5 -175.5t33 -179t135 -51.5l120 9l2 -32q-84 -9 -122 -9q-122 0 -163.5 57.5t-41.5 204t46 201.5t159 55l120 -10l-2 -32q-80 10 -118 10zM146 636l192 96l16 -31l-193 -92z" />
    <glyph glyph-name="Ccircumflex" unicode="&#x108;" horiz-adv-x="545" 
d="M501 11q-100 -20 -180.5 -20t-130 23.5t-76.5 72.5t-37 110t-10 141t5.5 131t21 99t42.5 77q60 64 180 64q88 0 185 -19l-3 -35q-96 20 -166.5 20t-109.5 -16t-61.5 -41.5t-35 -70t-16.5 -89.5t-4 -111t4 -111t17 -88t36 -68q51 -55 154 -55q78 0 182 20zM169 809
l134 125h30l134 -125h-45l-104 96l-103 -96h-46z" />
    <glyph glyph-name="ccircumflex" unicode="&#x109;" horiz-adv-x="429" 
d="M265 477q-95 0 -131.5 -48t-36.5 -175.5t33 -179t135 -51.5l120 9l2 -32q-84 -9 -122 -9q-122 0 -163.5 57.5t-41.5 204t46 201.5t159 55l120 -10l-2 -32q-80 10 -118 10zM103 600l121 132h28l122 -132h-43l-92 100l-93 -100h-43z" />
    <glyph glyph-name="Cdotaccent" unicode="&#x10a;" horiz-adv-x="545" 
d="M501 11q-100 -20 -180.5 -20t-130 23.5t-76.5 72.5t-37 110t-10 141t5.5 131t21 99t42.5 77q60 64 180 64q88 0 185 -19l-3 -35q-96 20 -166.5 20t-109.5 -16t-61.5 -41.5t-35 -70t-16.5 -89.5t-4 -111t4 -111t17 -88t36 -68q51 -55 154 -55q78 0 182 20zM279 823v55h35
v-55h-35z" />
    <glyph glyph-name="cdotaccent" unicode="&#x10b;" horiz-adv-x="429" 
d="M265 477q-95 0 -131.5 -48t-36.5 -175.5t33 -179t135 -51.5l120 9l2 -32q-84 -9 -122 -9q-122 0 -163.5 57.5t-41.5 204t46 201.5t159 55l120 -10l-2 -32q-80 10 -118 10zM230 645v55h35v-55h-35z" />
    <glyph glyph-name="Ccaron" unicode="&#x10c;" horiz-adv-x="545" 
d="M501 11q-100 -20 -180.5 -20t-130 23.5t-76.5 72.5t-37 110t-10 141t5.5 131t21 99t42.5 77q60 64 180 64q88 0 185 -19l-3 -35q-96 20 -166.5 20t-109.5 -16t-61.5 -41.5t-35 -70t-16.5 -89.5t-4 -111t4 -111t17 -88t36 -68q51 -55 154 -55q78 0 182 20zM285 809
l-134 125h45l104 -96l103 96h46l-134 -125h-30z" />
    <glyph glyph-name="ccaron" unicode="&#x10d;" horiz-adv-x="429" 
d="M265 477q-95 0 -131.5 -48t-36.5 -175.5t33 -179t135 -51.5l120 9l2 -32q-84 -9 -122 -9q-122 0 -163.5 57.5t-41.5 204t46 201.5t159 55l120 -10l-2 -32q-80 10 -118 10zM224 600l-121 132h42l94 -99l93 99h42l-122 -132h-28z" />
    <glyph glyph-name="Dcaron" unicode="&#x10e;" horiz-adv-x="649" 
d="M352 0h-260v700h260q64 0 110.5 -28t73 -77.5t38.5 -108t12 -128.5t-12.5 -131t-38.5 -113.5t-73 -83t-110 -30.5zM538 243.5q10 54.5 10 125.5t-16.5 136.5t-62.5 113t-117 47.5h-224v-632h224q54 0 93.5 29t61 77.5t31.5 103zM273 809l-134 125h45l104 -96l103 96h46
l-134 -125h-30z" />
    <glyph glyph-name="dcaron" unicode="&#x10f;" horiz-adv-x="515" 
d="M537 687h37l-46 -189h-28zM436 730v-730h-35v42q-29 -19 -81 -35t-84.5 -16t-50 2.5t-43.5 16t-42.5 38.5t-29 75t-12.5 119q0 136 46.5 201.5t164.5 65.5q57 0 132 -12v233h35zM182.5 29.5q19.5 -6.5 51.5 -6.5t75.5 13t67.5 26l24 13v390q-78 12 -132 12
q-101 0 -137.5 -57t-36.5 -178q0 -144 46 -186q22 -20 41.5 -26.5z" />
    <glyph glyph-name="Dcroat" unicode="&#x110;" horiz-adv-x="651" 
d="M17 334v34h77v332h260q64 0 110.5 -28t73.5 -77q50 -93 50 -235q0 -141 -51 -245q-26 -53 -73 -84t-110 -31h-260v334h-77zM550 360q0 60 -10 111.5t-31.5 97t-61 71.5t-93.5 26h-224v-298h177v-34h-177v-300h224q54 0 93.5 29t61 78.5t31.5 104t10 114.5z" />
    <glyph glyph-name="dcroat" unicode="&#x111;" horiz-adv-x="515" 
d="M436 730v-76h59v-32h-59v-622h-35v42q-29 -19 -81 -35t-84.5 -16t-50 2.5t-43.5 16t-42.5 38.5t-29 75t-12.5 119q0 136 46.5 201.5t164.5 65.5q57 0 132 -12v125h-173v32h173v76h35zM182.5 29.5q19.5 -6.5 51.5 -6.5t75.5 13t67.5 26l24 13v390q-78 12 -132 12
q-101 0 -137.5 -57t-36.5 -178q0 -144 46 -186q22 -20 41.5 -26.5z" />
    <glyph glyph-name="Emacron" unicode="&#x112;" horiz-adv-x="552" 
d="M92 0v700h409v-34h-373v-291h313v-34h-313v-307h373v-34h-409zM152 832v32h287v-32h-287z" />
    <glyph glyph-name="emacron" unicode="&#x113;" horiz-adv-x="502" 
d="M399 30l30 2l2 -32q-112 -9 -185 -9q-106 1 -147 64.5t-41 194.5q0 259 202 259q95 0 142.5 -57t47.5 -183v-33h-355q0 -108 34 -160.5t113 -52.5t157 7zM95 268h318q0 113 -36.5 161t-116.5 48q-165 0 -165 -209zM130 642v32h267v-32h-267z" />
    <glyph glyph-name="Ebreve" unicode="&#x114;" horiz-adv-x="552" 
d="M92 0v700h409v-34h-373v-291h313v-34h-313v-307h373v-34h-409zM169 924h35q0 -40 30 -63.5t73 -23.5t73 23.5t30 63.5h35q0 -54 -40 -86.5t-98 -32.5t-98 32.5t-40 86.5z" />
    <glyph glyph-name="ebreve" unicode="&#x115;" horiz-adv-x="502" 
d="M399 30l30 2l2 -32q-112 -9 -185 -9q-106 1 -147 64.5t-41 194.5q0 259 202 259q95 0 142.5 -57t47.5 -183v-33h-355q0 -108 34 -160.5t113 -52.5t157 7zM95 268h318q0 113 -36.5 161t-116.5 48q-165 0 -165 -209zM117 723h35q0 -42 27.5 -69t75.5 -27t75.5 27t27.5 69
h35q0 -56 -38 -92t-100 -36t-100 36t-38 92z" />
    <glyph glyph-name="Edotaccent" unicode="&#x116;" horiz-adv-x="552" 
d="M92 0v700h409v-34h-373v-291h313v-34h-313v-307h373v-34h-409zM277 823v55h35v-55h-35z" />
    <glyph glyph-name="edotaccent" unicode="&#x117;" horiz-adv-x="502" 
d="M399 30l30 2l2 -32q-112 -9 -185 -9q-106 1 -147 64.5t-41 194.5q0 259 202 259q95 0 142.5 -57t47.5 -183v-33h-355q0 -108 34 -160.5t113 -52.5t157 7zM95 268h318q0 113 -36.5 161t-116.5 48q-165 0 -165 -209zM234 645v55h35v-55h-35z" />
    <glyph glyph-name="Eogonek" unicode="&#x118;" horiz-adv-x="552" 
d="M92 0v700h409v-34h-373v-291h313v-34h-313v-307h373v-34h-30q-11 -9 -45.5 -52.5t-34.5 -64t13 -35t34 -14.5l56 7l4 -33q-36 -8 -67.5 -8t-54 22t-22.5 61.5t77 116.5h-339z" />
    <glyph glyph-name="eogonek" unicode="&#x119;" horiz-adv-x="502" 
d="M399 30l30 2l2 -32q-7 0 -14 -1q-19 -19 -49 -57.5t-30 -58.5t13 -34.5t34 -14.5l56 7l4 -33q-36 -8 -67.5 -8t-54 22t-22.5 61.5t73 112.5q-98 -5 -128 -5q-106 1 -147 64.5t-41 194.5q0 259 202 259q95 0 142.5 -57t47.5 -183v-33h-355q0 -108 34 -160.5t113 -52.5
t157 7zM95 268h318q0 113 -36.5 161t-116.5 48q-165 0 -165 -209z" />
    <glyph glyph-name="Ecaron" unicode="&#x11a;" horiz-adv-x="552" 
d="M92 0v700h409v-34h-373v-291h313v-34h-313v-307h373v-34h-409zM283 809l-134 125h45l104 -96l103 96h46l-134 -125h-30z" />
    <glyph glyph-name="ecaron" unicode="&#x11b;" horiz-adv-x="502" 
d="M399 30l30 2l2 -32q-112 -9 -185 -9q-106 1 -147 64.5t-41 194.5q0 259 202 259q95 0 142.5 -57t47.5 -183v-33h-355q0 -108 34 -160.5t113 -52.5t157 7zM95 268h318q0 113 -36.5 161t-116.5 48q-165 0 -165 -209zM237 600l-121 132h42l94 -99l93 99h42l-122 -132h-28z
" />
    <glyph glyph-name="Gcircumflex" unicode="&#x11c;" horiz-adv-x="619" 
d="M361 317v34h186v-331q-129 -25 -220 -25q-147 0 -204.5 89t-57.5 267q0 87 11.5 149.5t39.5 112.5q56 100 211 100q89 0 189 -19l31 -6l-3 -35q-126 26 -206 26t-125 -22t-68.5 -68t-32.5 -101.5t-9 -136t9.5 -136t33.5 -99.5q47 -87 181 -87q74 0 184 20v268h-150z
M169 804l134 125h30l134 -125h-45l-104 96l-103 -96h-46z" />
    <glyph glyph-name="gcircumflex" unicode="&#x11d;" horiz-adv-x="501" 
d="M418.5 -202.5q-50.5 -36.5 -167 -36.5t-155 33.5t-38.5 125.5q0 57 38 91q14 13 47 37q-22 14 -22 65q0 14 23 62l7 16q-86 28 -86 152q0 167 171 167q52 0 92 -10l14 -3l140 3v-35h-108q40 -37 40 -124.5t-43.5 -124.5t-138.5 -37q-30 0 -54 4q-23 -57 -23 -72t2 -23
t8 -15t23 -9q31 -5 117 -5t125 -27.5t39 -112.5t-50.5 -121.5zM94 -79q0 -74 31.5 -101t128 -27t137.5 28.5t41 97t-30 88.5t-112 20l-121 3q-45 -31 -60 -52.5t-15 -56.5zM132 240q31 -29 106.5 -29t107 28.5t31.5 103.5t-31.5 105t-107 30t-106.5 -30.5t-31 -104.5
t31 -103zM120 600l121 132h28l122 -132h-43l-92 100l-93 -100h-43z" />
    <glyph glyph-name="Gbreve" unicode="&#x11e;" horiz-adv-x="619" 
d="M361 313v34h186v-331q-129 -25 -220 -25q-147 0 -204.5 89t-57.5 267q0 87 11.5 149.5t39.5 112.5q56 100 211 100q89 0 189 -19l31 -6l-3 -35q-126 26 -206 26t-125 -22t-68.5 -68t-32.5 -101.5t-9 -136t9.5 -136t33.5 -99.5q47 -87 181 -87q74 0 184 20v268h-150z
M195 924h35q0 -40 30 -63.5t73 -23.5t73 23.5t30 63.5h35q0 -54 -40 -86.5t-98 -32.5t-98 32.5t-40 86.5z" />
    <glyph glyph-name="gbreve" unicode="&#x11f;" horiz-adv-x="501" 
d="M418.5 -202.5q-50.5 -36.5 -167 -36.5t-155 33.5t-38.5 125.5q0 57 38 91q14 13 47 37q-22 14 -22 65q0 14 23 62l7 16q-86 28 -86 152q0 167 171 167q52 0 92 -10l14 -3l140 3v-35h-108q40 -37 40 -124.5t-43.5 -124.5t-138.5 -37q-30 0 -54 4q-23 -57 -23 -72t2 -23
t8 -15t23 -9q31 -5 117 -5t125 -27.5t39 -112.5t-50.5 -121.5zM94 -79q0 -74 31.5 -101t128 -27t137.5 28.5t41 97t-30 88.5t-112 20l-121 3q-45 -31 -60 -52.5t-15 -56.5zM132 240q31 -29 106.5 -29t107 28.5t31.5 103.5t-31.5 105t-107 30t-106.5 -30.5t-31 -104.5
t31 -103zM117 723h35q0 -42 27.5 -69t75.5 -27t75.5 27t27.5 69h35q0 -56 -38 -92t-100 -36t-100 36t-38 92z" />
    <glyph glyph-name="Gdotaccent" unicode="&#x120;" horiz-adv-x="619" 
d="M361 313v34h186v-331q-129 -25 -220 -25q-147 0 -204.5 89t-57.5 267q0 87 11.5 149.5t39.5 112.5q56 100 211 100q89 0 189 -19l31 -6l-3 -35q-126 26 -206 26t-125 -22t-68.5 -68t-32.5 -101.5t-9 -136t9.5 -136t33.5 -99.5q47 -87 181 -87q74 0 184 20v268h-150z
M296 823v55h35v-55h-35z" />
    <glyph glyph-name="gdotaccent" unicode="&#x121;" horiz-adv-x="501" 
d="M418.5 -202.5q-50.5 -36.5 -167 -36.5t-155 33.5t-38.5 125.5q0 57 38 91q14 13 47 37q-22 14 -22 65q0 14 23 62l7 16q-86 28 -86 152q0 167 171 167q52 0 92 -10l14 -3l140 3v-35h-108q40 -37 40 -124.5t-43.5 -124.5t-138.5 -37q-30 0 -54 4q-23 -57 -23 -72t2 -23
t8 -15t23 -9q31 -5 117 -5t125 -27.5t39 -112.5t-50.5 -121.5zM94 -79q0 -74 31.5 -101t128 -27t137.5 28.5t41 97t-30 88.5t-112 20l-121 3q-45 -31 -60 -52.5t-15 -56.5zM132 240q31 -29 106.5 -29t107 28.5t31.5 103.5t-31.5 105t-107 30t-106.5 -30.5t-31 -104.5
t31 -103zM237 645v55h35v-55h-35z" />
    <glyph glyph-name="Gcommaaccent" unicode="&#x122;" horiz-adv-x="619" 
d="M361 313v34h186v-331q-129 -25 -220 -25q-147 0 -204.5 89t-57.5 267q0 87 11.5 149.5t39.5 112.5q56 100 211 100q89 0 189 -19l31 -6l-3 -35q-126 26 -206 26t-125 -22t-68.5 -68t-32.5 -101.5t-9 -136t9.5 -136t33.5 -99.5q47 -87 181 -87q74 0 184 20v268h-150z
M324 -78h37l-46 -189h-28z" />
    <glyph glyph-name="gcommaaccent" unicode="&#x123;" horiz-adv-x="501" 
d="M281 782l-37 -189h-37l46 189h28zM418.5 -202.5q-50.5 -36.5 -167 -36.5t-155 33.5t-38.5 125.5q0 57 38 91q14 13 47 37q-22 14 -22 65q0 14 23 62l7 16q-86 28 -86 152q0 167 171 167q52 0 92 -10l14 -3l140 3v-35h-108q40 -37 40 -124.5t-43.5 -124.5t-138.5 -37
q-30 0 -54 4q-23 -57 -23 -72t2 -23t8 -15t23 -9q31 -5 117 -5t125 -27.5t39 -112.5t-50.5 -121.5zM94 -79q0 -74 31.5 -101t128 -27t137.5 28.5t41 97t-30 88.5t-112 20l-121 3q-45 -31 -60 -52.5t-15 -56.5zM132 240q31 -29 106.5 -29t107 28.5t31.5 103.5t-31.5 105
t-107 30t-106.5 -30.5t-31 -104.5t31 -103z" />
    <glyph glyph-name="Hcircumflex" unicode="&#x124;" horiz-adv-x="674" 
d="M546 0v334h-418v-334h-36v700h36v-332h418v332h36v-700h-36zM189 809l134 125h30l134 -125h-45l-104 96l-103 -96h-46z" />
    <glyph glyph-name="hcircumflex" unicode="&#x125;" horiz-adv-x="526" 
d="M114 0h-35v730h35v-260q88 39 181 39t125 -50.5t32 -198.5v-260h-35v258q0 132 -24 175.5t-105 43.5q-40 0 -83.5 -10t-66.5 -20l-24 -10v-437zM126 790l121 132h28l122 -132h-43l-92 100l-93 -100h-43z" />
    <glyph glyph-name="Hbar" unicode="&#x126;" horiz-adv-x="686" 
d="M12 522v32h84v146h36v-146h418v146h36v-146h93v-32h-93v-522h-36v334h-418v-334h-36v522h-84zM132 368h418v154h-418v-154z" />
    <glyph glyph-name="hbar" unicode="&#x127;" horiz-adv-x="526" 
d="M8 612v32h71v86h35v-86h161v-32h-161v-142q88 39 181 39t125 -50.5t32 -198.5v-260h-35v258q0 132 -24 175.5t-105 43.5q-40 0 -83.5 -10t-66.5 -20l-24 -10v-437h-35v612h-71z" />
    <glyph glyph-name="Itilde" unicode="&#x128;" horiz-adv-x="220" 
d="M92 0v700h36v-700h-36zM256 885q-39 -52 -66 -52t-87.5 30t-72.5 30q-22 0 -58 -39l-12 -13l-10 29q44 54 77 54q23 0 83.5 -29.5t71.5 -29.5q21 0 52 36l11 12z" />
    <glyph glyph-name="itilde" unicode="&#x129;" horiz-adv-x="193" 
d="M79 500h35v-500h-35v500zM247 673q-42 -43 -68 -43t-81.5 27t-67.5 27q-22 0 -60 -34l-13 -11l-10 29q49 47 82 47q21 0 76.5 -26.5t66.5 -26.5q21 0 54 30l12 11z" />
    <glyph glyph-name="Imacron" unicode="&#x12a;" horiz-adv-x="220" 
d="M92 0v700h36v-700h-36zM-32 832v32h287v-32h-287z" />
    <glyph glyph-name="imacron" unicode="&#x12b;" horiz-adv-x="193" 
d="M79 500h35v-500h-35v500zM-37 642v32h267v-32h-267z" />
    <glyph glyph-name="Ibreve" unicode="&#x12c;" horiz-adv-x="220" 
d="M92 0v700h36v-700h-36zM-26 924h35q0 -40 30 -63.5t73 -23.5t73 23.5t30 63.5h35q0 -54 -40 -86.5t-98 -32.5t-98 32.5t-40 86.5z" />
    <glyph glyph-name="ibreve" unicode="&#x12d;" horiz-adv-x="193" 
d="M79 500h35v-500h-35v500zM-41 723h35q0 -42 27.5 -69t75.5 -27t75.5 27t27.5 69h35q0 -56 -38 -92t-100 -36t-100 36t-38 92z" />
    <glyph glyph-name="Iogonek" unicode="&#x12e;" horiz-adv-x="220" 
d="M47 -116q0 -21 13 -35.5t34 -14.5l56 7l4 -33q-36 -8 -67.5 -8t-54 22t-22.5 61.5t82 121.5v695h36v-700q-81 -84 -81 -116z" />
    <glyph glyph-name="iogonek" unicode="&#x12f;" horiz-adv-x="193" 
d="M114 500v-500q-81 -84 -81 -116q0 -21 13 -35.5t34 -14.5l56 7l4 -33q-36 -8 -67.5 -8t-54 22t-22.5 60q0 18 20 48q28 41 63 73v497h35zM79 645v55h35v-55h-35z" />
    <glyph glyph-name="Idotaccent" unicode="&#x130;" horiz-adv-x="220" 
d="M92 0v700h36v-700h-36zM93 823v55h35v-55h-35z" />
    <glyph glyph-name="dotlessi" unicode="&#x131;" horiz-adv-x="193" 
d="M79 0v500h35v-500h-35z" />
    <glyph glyph-name="Jcircumflex" unicode="&#x134;" horiz-adv-x="280" 
d="M191 700v-619q0 -78 -19 -107q-11 -17 -22 -26.5t-34 -13.5q-34 -7 -98 -7v34q97 0 113 17q20 22 22 52.5t2 65.5v604h36zM23 804l134 125h30l134 -125h-45l-104 96l-103 -96h-46z" />
    <glyph glyph-name="jcircumflex" unicode="&#x135;" horiz-adv-x="193" 
d="M79 6v494h35v-495q0 -85 -31.5 -129.5t-127.5 -93.5l-14 31q86 47 112 83.5t26 109.5zM-43 600l121 132h28l122 -132h-43l-92 100l-93 -100h-43z" />
    <glyph glyph-name="Kcommaaccent" unicode="&#x136;" horiz-adv-x="553" 
d="M128 329v-329h-36v700h36v-337h129l220 337h43l-231 -352l247 -348h-46l-231 329h-131zM277 -78h37l-46 -189h-28z" />
    <glyph glyph-name="kcommaaccent" unicode="&#x137;" horiz-adv-x="455" 
d="M173 -267l37 189h37l-46 -189h-28zM114 0h-35v730h35v-441h96l172 211h42l-184 -226l192 -274h-42l-180 257h-96v-257z" />
    <glyph glyph-name="Lacute" unicode="&#x139;" horiz-adv-x="483" 
d="M469 0h-377v700h36v-666h341v-34zM150 826l192 96l16 -31l-193 -92z" />
    <glyph glyph-name="lacute" unicode="&#x13a;" horiz-adv-x="205" 
d="M85 0v730h35v-730h-35zM59 836l192 96l16 -31l-193 -92z" />
    <glyph glyph-name="Lcommaaccent" unicode="&#x13b;" horiz-adv-x="483" 
d="M265 -78h37l-46 -189h-28zM469 0h-377v700h36v-666h341v-34z" />
    <glyph glyph-name="lcommaaccent" unicode="&#x13c;" horiz-adv-x="205" 
d="M85 0v730h35v-730h-35zM79 -78h37l-46 -189h-28z" />
    <glyph glyph-name="Lcaron" unicode="&#x13d;" horiz-adv-x="492" 
d="M424 700v-217h-34v217h34zM469 0h-377v700h36v-666h341v-34z" />
    <glyph glyph-name="lcaron" unicode="&#x13e;" horiz-adv-x="199" 
d="M223 687h37l-46 -189h-28zM85 0v730h35v-730h-35z" />
    <glyph glyph-name="Lslash" unicode="&#x141;" horiz-adv-x="485" 
d="M471 0h-377v308l-66 -46l-19 26l85 59v353h36v-327l171 120l19 -26l-190 -134v-299h341v-34z" />
    <glyph glyph-name="lslash" unicode="&#x142;" horiz-adv-x="263" 
d="M111 0v319l-78 -54l-19 27l97 68v370h35v-346l81 57l19 -27l-100 -70v-344h-35z" />
    <glyph glyph-name="Nacute" unicode="&#x143;" horiz-adv-x="665" 
d="M92 0v700h85l333 -666h27v666h36v-700h-85l-334 666h-26v-666h-36zM232 826l192 96l16 -31l-193 -92z" />
    <glyph glyph-name="nacute" unicode="&#x144;" horiz-adv-x="527" 
d="M79 0v500h35v-40l24 12q25 12 69 24.5t82 12.5q100 0 132 -50.5t32 -198.5v-260h-35v258q0 132 -24 175.5t-105 43.5q-40 0 -92.5 -16t-82.5 -34v-427h-35zM170 636l192 96l16 -31l-193 -92z" />
    <glyph glyph-name="Ncommaaccent" unicode="&#x145;" horiz-adv-x="665" 
d="M340 -78h37l-46 -189h-28zM92 0v700h85l333 -666h27v666h36v-700h-85l-334 666h-26v-666h-36z" />
    <glyph glyph-name="ncommaaccent" unicode="&#x146;" horiz-adv-x="527" 
d="M219 -267l37 189h37l-46 -189h-28zM114 0h-35v500h35v-40q89 49 182 49t125 -50.5t32 -198.5v-260h-35v258q0 132 -24 175.5t-105 43.5q-40 0 -83.5 -12.5t-67.5 -24.5l-24 -13v-427z" />
    <glyph glyph-name="Ncaron" unicode="&#x147;" horiz-adv-x="665" 
d="M92 0v700h85l333 -666h27v666h36v-700h-85l-334 666h-26v-666h-36zM318 804l-134 125h45l104 -96l103 96h46l-134 -125h-30z" />
    <glyph glyph-name="ncaron" unicode="&#x148;" horiz-adv-x="527" 
d="M114 0h-35v500h35v-40q89 49 182 49t125 -50.5t32 -198.5v-260h-35v258q0 132 -24 175.5t-105 43.5q-40 0 -83.5 -12.5t-67.5 -24.5l-24 -13v-427zM250 600l-121 132h42l94 -99l93 99h42l-122 -132h-28z" />
    <glyph glyph-name="Eng" unicode="&#x14a;" horiz-adv-x="665" 
d="M92 0v700h85l333 -666h27v666h36v-719q0 -78 -19 -107q-11 -17 -22 -26.5t-34 -13.5q-34 -7 -98 -7v34q97 0 113 17q20 22 22 52.5t2 65.5v4h-49l-334 666h-26v-666h-36z" />
    <glyph glyph-name="eng" unicode="&#x14b;" horiz-adv-x="528" 
d="M114 0h-35v500h35v-40q90 49 182.5 49t125 -53t32.5 -196v-267q0 -85 -29 -127.5t-120 -95.5l-14 31q79 47 103.5 83.5t24.5 109.5v264q0 126 -24.5 172.5t-104.5 46.5q-40 0 -84 -12.5t-68 -24.5l-24 -13v-427z" />
    <glyph glyph-name="Omacron" unicode="&#x14c;" horiz-adv-x="666" 
d="M216 45q46 -20 117.5 -20t117 18.5t70 61t33.5 98.5t9 144q0 168 -48.5 248t-181.5 80q-139 0 -187 -87q-24 -44 -33.5 -100.5t-9.5 -141t9 -139.5t33.5 -98.5t70.5 -63.5zM118 82q-30 48 -41.5 110.5t-11.5 154.5q0 184 58 273t210 89t210 -88.5t58 -276.5t-56.5 -270.5
t-213.5 -82.5t-213 91zM190 832v32h287v-32h-287z" />
    <glyph glyph-name="omacron" unicode="&#x14d;" horiz-adv-x="526" 
d="M263 509q111 0 157 -56t46 -202t-41 -203t-162 -57t-162 57t-41 203t46 202t157 56zM263 23q56 0 88.5 11.5t50 43t22.5 71t5 110.5q0 126 -35 172t-131 46t-131 -46t-35 -172q0 -71 5 -110.5t22.5 -71t50 -43t88.5 -11.5zM130 662v32h267v-32h-267z" />
    <glyph glyph-name="Obreve" unicode="&#x14e;" horiz-adv-x="666" 
d="M216 45q46 -20 117.5 -20t117 18.5t70 61t33.5 98.5t9 144q0 168 -48.5 248t-181.5 80q-139 0 -187 -87q-24 -44 -33.5 -100.5t-9.5 -141t9 -139.5t33.5 -98.5t70.5 -63.5zM118 82q-30 48 -41.5 110.5t-11.5 154.5q0 184 58 273t210 89t210 -88.5t58 -276.5t-56.5 -270.5
t-213.5 -82.5t-213 91zM196 924h35q0 -40 30 -63.5t73 -23.5t73 23.5t30 63.5h35q0 -54 -40 -86.5t-98 -32.5t-98 32.5t-40 86.5z" />
    <glyph glyph-name="obreve" unicode="&#x14f;" horiz-adv-x="526" 
d="M263 509q111 0 157 -56t46 -202t-41 -203t-162 -57t-162 57t-41 203t46 202t157 56zM263 23q56 0 88.5 11.5t50 43t22.5 71t5 110.5q0 126 -35 172t-131 46t-131 -46t-35 -172q0 -71 5 -110.5t22.5 -71t50 -43t88.5 -11.5zM128 723h35q0 -42 27.5 -69t75.5 -27t75.5 27
t27.5 69h35q0 -56 -38 -92t-100 -36t-100 36t-38 92z" />
    <glyph glyph-name="Ohungarumlaut" unicode="&#x150;" horiz-adv-x="666" 
d="M216 45q46 -20 117.5 -20t117 18.5t70 61t33.5 98.5t9 144q0 168 -48.5 248t-181.5 80q-139 0 -187 -87q-24 -44 -33.5 -100.5t-9.5 -141t9 -139.5t33.5 -98.5t70.5 -63.5zM118 82q-30 48 -41.5 110.5t-11.5 154.5q0 184 58 273t210 89t210 -88.5t58 -276.5t-56.5 -270.5
t-213.5 -82.5t-213 91zM337 791l191 87l15 -29l-192 -88zM146 791l192 88l14 -30l-191 -87z" />
    <glyph glyph-name="ohungarumlaut" unicode="&#x151;" horiz-adv-x="526" 
d="M263 509q111 0 157 -56t46 -202t-41 -203t-162 -57t-162 57t-41 203t46 202t157 56zM263 23q56 0 88.5 11.5t50 43t22.5 71t5 110.5q0 126 -35 172t-131 46t-131 -46t-35 -172q0 -71 5 -110.5t22.5 -71t50 -43t88.5 -11.5zM305 622l163 104l18 -27l-163 -104zM120 622
l163 104l18 -27l-163 -104z" />
    <glyph glyph-name="OE" unicode="&#x152;" horiz-adv-x="940" 
d="M889 -1h-398q-84 -8 -161 -8t-130 22t-82.5 69.5t-41 109.5t-11.5 153t12 154.5t41 112.5q58 97 215 97q101 0 157 -9h399v-36h-363v-286h303v-36h-303v-306h363v-37zM216 45q46 -20 107.5 -20t166.5 9v629q-140 12 -157 12q-139 0 -187 -87q-24 -44 -33.5 -100.5
t-9.5 -141t9 -139.5t33.5 -98.5t70.5 -63.5z" />
    <glyph glyph-name="oe" unicode="&#x153;" horiz-adv-x="873" 
d="M770 30l30 2l2 -32q-112 -9 -185 -9q-130 0 -169 107q-18 -56 -61 -81.5t-122 -25.5q-122 0 -163.5 58t-41.5 204t46.5 201t158.5 55q146 0 184 -120q44 120 182 120q95 0 142.5 -57t47.5 -183v-33h-355q0 -108 34 -160.5t113 -52.5t157 7zM177 35q33 -12 87.5 -12
t88 13.5t50 46t21.5 71.5t5 105q0 118 -39.5 168t-130.5 50t-126.5 -45.5t-35.5 -170.5q0 -70 5.5 -110.5t23.5 -72t51 -43.5zM466 268h318q0 113 -36.5 161t-116.5 48q-165 0 -165 -209z" />
    <glyph glyph-name="Racute" unicode="&#x154;" horiz-adv-x="613" 
d="M128 290v-290h-36v700h251q106 0 157 -48t51 -152q0 -177 -145 -205l158 -295h-41l-156 290h-239zM513 500q0 87 -41 126.5t-129 39.5h-215v-342h215q170 0 170 176zM199 826l192 96l16 -31l-193 -92z" />
    <glyph glyph-name="racute" unicode="&#x155;" horiz-adv-x="328" 
d="M79 0v500h35v-78q30 24 89.5 51.5t108.5 36.5v-36q-44 -9 -93.5 -30t-76.5 -38l-28 -17v-389h-35zM79 636l192 96l16 -31l-193 -92z" />
    <glyph glyph-name="Rcommaaccent" unicode="&#x156;" horiz-adv-x="613" 
d="M268 -267l37 189h37l-46 -189h-28zM128 290v-290h-36v700h251q106 0 157 -48t51 -152q0 -177 -145 -205l158 -295h-41l-156 290h-239zM513 500q0 87 -41 126.5t-129 39.5h-215v-342h215q170 0 170 176z" />
    <glyph glyph-name="rcommaaccent" unicode="&#x157;" horiz-adv-x="328" 
d="M79 -78h37l-46 -189h-28zM79 0v500h35v-78q30 24 89.5 51.5t108.5 36.5v-36q-44 -9 -93.5 -30t-76.5 -38l-28 -17v-389h-35z" />
    <glyph glyph-name="Rcaron" unicode="&#x158;" horiz-adv-x="613" 
d="M128 290v-290h-36v700h251q106 0 157 -48t51 -152q0 -177 -145 -205l158 -295h-41l-156 290h-239zM513 500q0 87 -41 126.5t-129 39.5h-215v-342h215q170 0 170 176zM286 809l-134 125h45l104 -96l103 96h46l-134 -125h-30z" />
    <glyph glyph-name="rcaron" unicode="&#x159;" horiz-adv-x="328" 
d="M79 0v500h35v-78q30 24 89.5 51.5t108.5 36.5v-36q-44 -9 -93.5 -30t-76.5 -38l-28 -17v-389h-35zM161 600l-121 132h42l94 -99l93 99h42l-122 -132h-28z" />
    <glyph glyph-name="Sacute" unicode="&#x15a;" horiz-adv-x="540" 
d="M272 677q-178 0 -178 -140q0 -63 21 -91q12 -15 25 -25.5t38 -18.5q41 -12 104 -22q109 -17 156.5 -52.5t47.5 -124.5q0 -113 -52.5 -161.5t-159.5 -48.5q-66 0 -177 12l-37 4l4 35q138 -17 218 -17q166 0 166 173q0 73 -38 101t-117.5 40t-113 21.5t-65 29.5t-45 54.5
t-13.5 88.5q0 176 216 176q69 0 166 -12l33 -4l-4 -35q-137 17 -195 17zM177 826l192 96l16 -31l-193 -92z" />
    <glyph glyph-name="sacute" unicode="&#x15b;" horiz-adv-x="461" 
d="M222 477q-134 0 -134 -100q0 -47 28 -66.5t124 -34.5t134 -40t38 -100.5t-48 -110t-142 -34.5q-51 0 -136 12l-29 4l4 33q108 -17 172 -17t103 25t39 85t-30.5 79t-125 33.5t-131.5 39t-37 82.5t27 89.5t63 42t75 10.5q81 0 152 -11l26 -4l-2 -33q-102 16 -170 16z
M129 636l192 96l16 -31l-193 -92z" />
    <glyph glyph-name="Scircumflex" unicode="&#x15c;" horiz-adv-x="540" 
d="M272 677q-178 0 -178 -140q0 -63 21 -91q12 -15 25 -25.5t38 -18.5q41 -12 104 -22q109 -17 156.5 -52.5t47.5 -124.5q0 -113 -52.5 -161.5t-159.5 -48.5q-66 0 -177 12l-37 4l4 35q138 -17 218 -17q166 0 166 173q0 73 -38 101t-117.5 40t-113 21.5t-65 29.5t-45 54.5
t-13.5 88.5q0 176 216 176q69 0 166 -12l33 -4l-4 -35q-137 17 -195 17zM124 804l134 125h30l134 -125h-45l-104 96l-103 -96h-46z" />
    <glyph glyph-name="scircumflex" unicode="&#x15d;" horiz-adv-x="461" 
d="M222 477q-134 0 -134 -100q0 -47 28 -66.5t124 -34.5t134 -40t38 -100.5t-48 -110t-142 -34.5q-51 0 -136 12l-29 4l4 33q108 -17 172 -17t103 25t39 85t-30.5 79t-125 33.5t-131.5 39t-37 82.5t27 89.5t63 42t75 10.5q81 0 152 -11l26 -4l-2 -33q-102 16 -170 16z
M97 600l121 132h28l122 -132h-43l-92 100l-93 -100h-43z" />
    <glyph glyph-name="Scedilla" unicode="&#x15e;" horiz-adv-x="540" 
d="M395 -127q0 -74 -82 -74l-81 4l2 28q44 -4 78 -4q48 0 48 46q0 42 -48 42h-54v78q-68 2 -166 13l-32 3l4 35q138 -17 218 -17q166 0 166 173q0 73 -38 101t-117.5 40t-113 21.5t-65 29.5t-45 54.5t-13.5 88.5q0 176 216 176q69 0 166 -12l33 -4l-4 -35q-137 17 -195 17
q-178 0 -178 -140q0 -63 21 -91q12 -15 25 -25.5t38 -18.5q41 -12 104 -22q109 -17 156.5 -52.5t47.5 -134.5t-48 -147.5t-147 -51.5v-51q56 0 80 -15t24 -55z" />
    <glyph glyph-name="scedilla" unicode="&#x15f;" horiz-adv-x="461" 
d="M342 -127q0 -74 -82 -74l-81 4l2 28q44 -4 78 -4q48 0 48 46q0 42 -48 42h-54v77q-61 2 -124 12l-24 3l4 33q108 -17 172 -17t103 25t39 85t-30.5 79t-125 33.5t-131.5 39t-37 82.5t27 89.5t63 42t75 10.5q81 0 152 -11l26 -4l-2 -33q-102 16 -170 16q-134 0 -134 -100
q0 -47 28 -66.5t124 -34.5t134 -40t38 -98.5t-44 -109t-130 -37.5v-48q56 0 80 -15t24 -55z" />
    <glyph glyph-name="Scaron" unicode="&#x160;" horiz-adv-x="540" 
d="M272 677q-178 0 -178 -140q0 -63 21 -91q12 -15 25 -25.5t38 -18.5q41 -12 104 -22q109 -17 156.5 -52.5t47.5 -124.5q0 -113 -52.5 -161.5t-159.5 -48.5q-66 0 -177 12l-37 4l4 35q138 -17 218 -17q166 0 166 173q0 73 -38 101t-117.5 40t-113 21.5t-65 29.5t-45 54.5
t-13.5 88.5q0 176 216 176q69 0 166 -12l33 -4l-4 -35q-137 17 -195 17zM260 809l-134 125h45l104 -96l103 96h46l-134 -125h-30z" />
    <glyph glyph-name="scaron" unicode="&#x161;" horiz-adv-x="461" 
d="M222 477q-134 0 -134 -100q0 -47 28 -66.5t124 -34.5t134 -40t38 -100.5t-48 -110t-142 -34.5q-51 0 -136 12l-29 4l4 33q108 -17 172 -17t103 25t39 85t-30.5 79t-125 33.5t-131.5 39t-37 82.5t27 89.5t63 42t75 10.5q81 0 152 -11l26 -4l-2 -33q-102 16 -170 16z
M225 600l-121 132h42l94 -99l93 99h42l-122 -132h-28z" />
    <glyph glyph-name="Tcedilla" unicode="&#x162;" horiz-adv-x="0" 
 />
    <glyph glyph-name="tcedilla" unicode="&#x163;" horiz-adv-x="342" 
d="M325 468h-182v-262q0 -115 16.5 -149.5t75.5 -34.5l98 8l3 -32q-66 -8 -101 -8q-71 0 -99 36.5t-28 141.5v300h-79v32h79v163h35v-163h182v-32zM252 -127q0 -74 -82 -74l-81 4l2 28q44 -4 78 -4q48 0 48 46q0 42 -48 42h-54v86h33v-58q56 0 80 -15t24 -55z" />
    <glyph glyph-name="Tcaron" unicode="&#x164;" horiz-adv-x="526" 
d="M13 666v34h500v-34h-231v-666h-36v666h-233zM249 809l-134 125h45l104 -96l103 96h46l-134 -125h-30z" />
    <glyph glyph-name="tcaron" unicode="&#x165;" horiz-adv-x="395" 
d="M325 468h-182v-262q0 -115 16.5 -149.5t75.5 -34.5l98 8l3 -32q-66 -8 -101 -8q-71 0 -99 36.5t-28 141.5v300h-79v32h79v163h35v-163h182v-32zM400 700v-217h-34v217h34z" />
    <glyph glyph-name="Tbar" unicode="&#x166;" horiz-adv-x="530" 
d="M15 666v34h500v-34h-231v-302h181v-32h-181v-332h-36v332h-183v32h183v302h-233z" />
    <glyph glyph-name="tbar" unicode="&#x167;" horiz-adv-x="347" 
d="M329 468h-182v-154h161v-32h-161v-76q0 -115 16.5 -149.5t75.5 -34.5l98 8l3 -32q-66 -8 -101 -8q-71 0 -99 36.5t-28 141.5v114h-71v32h71v154h-79v32h79v163h35v-163h182v-32z" />
    <glyph glyph-name="Utilde" unicode="&#x168;" horiz-adv-x="638" 
d="M124 196q0 -91 49 -131t144.5 -40t146 39.5t50.5 131.5v504h36v-504q0 -109 -59.5 -157t-173 -48t-171.5 48t-58 157v504h36v-504zM475 885q-39 -52 -66 -52t-87.5 30t-72.5 30q-22 0 -58 -39l-12 -13l-10 29q44 54 77 54q23 0 83.5 -29.5t72.5 -29.5q18 0 51 36l11 12z
" />
    <glyph glyph-name="utilde" unicode="&#x169;" horiz-adv-x="516" 
d="M437 500v-500h-35v40l-22 -12q-22 -13 -63 -25t-79 -12q-100 0 -132 50.5t-32 198.5v260h35v-258q0 -132 24 -175.5t105 -43.5q40 0 90.5 16.5t73.5 33.5v427h35zM410 673q-42 -43 -68 -43t-81.5 27t-67.5 27q-22 0 -60 -34l-13 -11l-10 29q49 47 82 47q21 0 76.5 -26.5
t67.5 -26.5q20 0 54 30l11 11z" />
    <glyph glyph-name="Umacron" unicode="&#x16a;" horiz-adv-x="638" 
d="M124 196q0 -91 49 -131t144.5 -40t146 39.5t50.5 131.5v504h36v-504q0 -109 -59.5 -157t-173 -48t-171.5 48t-58 157v504h36v-504zM176 832v32h287v-32h-287z" />
    <glyph glyph-name="umacron" unicode="&#x16b;" horiz-adv-x="516" 
d="M437 500v-500h-35v40l-22 -12q-22 -13 -63 -25t-79 -12q-100 0 -132 50.5t-32 198.5v260h35v-258q0 -132 24 -175.5t105 -43.5q40 0 90.5 16.5t73.5 33.5v427h35zM122 642v32h267v-32h-267z" />
    <glyph glyph-name="Ubreve" unicode="&#x16c;" horiz-adv-x="638" 
d="M124 196q0 -91 49 -131t144.5 -40t146 39.5t50.5 131.5v504h36v-504q0 -109 -59.5 -157t-173 -48t-171.5 48t-58 157v504h36v-504zM181 924h35q0 -40 30 -63.5t73 -23.5t73 23.5t30 63.5h35q0 -54 -40 -86.5t-98 -32.5t-98 32.5t-40 86.5z" />
    <glyph glyph-name="ubreve" unicode="&#x16d;" horiz-adv-x="516" 
d="M437 500v-500h-35v40l-22 -12q-22 -13 -63 -25t-79 -12q-100 0 -132 50.5t-32 198.5v260h35v-258q0 -132 24 -175.5t105 -43.5q40 0 90.5 16.5t73.5 33.5v427h35zM111 723h35q0 -42 27.5 -69t75.5 -27t75.5 27t27.5 69h35q0 -56 -38 -92t-100 -36t-100 36t-38 92z" />
    <glyph glyph-name="Uring" unicode="&#x16e;" horiz-adv-x="638" 
d="M124 196q0 -91 49 -131t144.5 -40t146 39.5t50.5 131.5v504h36v-504q0 -109 -59.5 -157t-173 -48t-171.5 48t-58 157v504h36v-504zM416 850q0 -43 -26.5 -67.5t-70.5 -24.5t-70.5 24.5t-26.5 67.5t26.5 67.5t70.5 24.5t70.5 -24.5t26.5 -67.5zM255 850q0 -30 17 -46
t47 -16t47 16t17 46t-17 46t-47 16t-47 -16t-17 -46z" />
    <glyph glyph-name="uring" unicode="&#x16f;" horiz-adv-x="516" 
d="M437 500v-500h-35v40l-22 -12q-22 -13 -63 -25t-79 -12q-100 0 -132 50.5t-32 198.5v260h35v-258q0 -132 24 -175.5t105 -43.5q40 0 90.5 16.5t73.5 33.5v427h35zM162 650q0 40 28 67.5t68 27.5t67 -27.5t27 -67.5t-27 -67.5t-67.5 -27.5t-68 27.5t-27.5 67.5zM196 650
q0 -26 18 -45t43.5 -19t43.5 19t18 45t-18 44.5t-43.5 18.5t-43.5 -18.5t-18 -44.5z" />
    <glyph glyph-name="Uhungarumlaut" unicode="&#x170;" horiz-adv-x="638" 
d="M124 196q0 -91 49 -131t144.5 -40t146 39.5t50.5 131.5v504h36v-504q0 -109 -59.5 -157t-173 -48t-171.5 48t-58 157v504h36v-504zM347 791l191 87l15 -29l-192 -88zM156 791l192 88l14 -30l-191 -87z" />
    <glyph glyph-name="uhungarumlaut" unicode="&#x171;" horiz-adv-x="516" 
d="M437 500v-500h-35v40l-22 -12q-22 -13 -63 -25t-79 -12q-100 0 -132 50.5t-32 198.5v260h35v-258q0 -132 24 -175.5t105 -43.5q40 0 90.5 16.5t73.5 33.5v427h35zM302 622l163 104l18 -27l-163 -104zM117 622l163 104l18 -27l-163 -104z" />
    <glyph glyph-name="Uogonek" unicode="&#x172;" horiz-adv-x="637" 
d="M123 196q0 -91 49 -131t144.5 -40t146 39.5t50.5 131.5v504h36v-504q0 -162 -140 -195q-81 -85 -81 -117q0 -21 13 -35.5t34 -14.5l56 7l4 -33q-36 -8 -67.5 -8t-54 22t-22.5 61.5t70 109.5q-30 -2 -48 -2q-110 0 -168 48t-58 157v504h36v-504z" />
    <glyph glyph-name="uogonek" unicode="&#x173;" horiz-adv-x="516" 
d="M402 500h35v-500q-80 -84 -80 -116q0 -21 13 -35.5t34 -14.5l56 7l4 -33q-36 -8 -67.5 -8t-54 22t-22.5 60.5t82 120.5v37q-9 -5 -24 -13.5t-58.5 -22t-81.5 -13.5q-100 0 -132 50.5t-32 198.5v260h35v-258q0 -132 24 -175.5t105 -43.5q40 0 81 12.5t62 24.5l21 13v427z
" />
    <glyph glyph-name="Wcircumflex" unicode="&#x174;" horiz-adv-x="856" 
d="M38 700h36l140 -666h39l153 656h44l153 -656h39l140 666h36l-147 -700h-96l-147 641l-147 -641h-96zM279 804l134 125h30l134 -125h-45l-104 96l-103 -96h-46z" />
    <glyph glyph-name="wcircumflex" unicode="&#x175;" horiz-adv-x="756" 
d="M36 500h37l127 -468h11l148 458h38l148 -458h11l127 468h37l-135 -500h-68l-139 448l-139 -448h-68zM243 600l121 132h28l122 -132h-43l-92 100l-93 -100h-43z" />
    <glyph glyph-name="Ycircumflex" unicode="&#x176;" horiz-adv-x="526" 
d="M281 0h-36v301l-228 399h42l204 -359l204 359h42l-228 -399v-301zM114 809l134 125h30l134 -125h-45l-104 96l-103 -96h-46z" />
    <glyph glyph-name="ycircumflex" unicode="&#x177;" horiz-adv-x="471" 
d="M31 500h37l147 -468h41l148 468h37l-229 -730h-37l72 230h-61zM105 600l121 132h28l122 -132h-43l-92 100l-93 -100h-43z" />
    <glyph glyph-name="Ydieresis" unicode="&#x178;" horiz-adv-x="526" 
d="M281 0h-36v301l-228 399h42l204 -359l204 359h42l-228 -399v-301zM147 838v62h35v-62h-35zM343 838v62h35v-62h-35z" />
    <glyph glyph-name="Zacute" unicode="&#x179;" horiz-adv-x="539" 
d="M44 666v34h450v-70l-413 -575v-22h413v-34h-450v69l413 574v24h-413zM175 826l192 96l16 -31l-193 -92z" />
    <glyph glyph-name="zacute" unicode="&#x17a;" horiz-adv-x="455" 
d="M42 500h371v-32l-326 -436h326v-32h-371v32l327 436h-327v32zM134 636l192 96l16 -31l-193 -92z" />
    <glyph glyph-name="Zdotaccent" unicode="&#x17b;" horiz-adv-x="539" 
d="M44 666v34h450v-70l-413 -575v-22h413v-34h-450v69l413 574v24h-413zM251 823v55h35v-55h-35z" />
    <glyph glyph-name="zdotaccent" unicode="&#x17c;" horiz-adv-x="455" 
d="M42 500h371v-32l-326 -436h326v-32h-371v32l327 436h-327v32zM210 645v55h35v-55h-35z" />
    <glyph glyph-name="Zcaron" unicode="&#x17d;" horiz-adv-x="539" 
d="M44 666v34h450v-70l-413 -575v-22h413v-34h-450v69l413 574v24h-413zM266 809l-134 125h45l104 -96l103 96h46l-134 -125h-30z" />
    <glyph glyph-name="zcaron" unicode="&#x17e;" horiz-adv-x="455" 
d="M42 468v32h371v-32l-326 -436h326v-32h-371v32l327 436h-327zM212 600l-121 132h42l94 -99l93 99h42l-122 -132h-28z" />
    <glyph glyph-name="florin" unicode="&#x192;" 
d="M254 -60q0 -99 -29 -139t-98 -40l-92 5l2 33q58 -5 90 -5q51 0 71.5 32t20.5 114v412h-69v32h69v74q0 119 29 166q13 20 38 34.5t60 14.5l93 -6l-2 -32q-46 5 -91 5q-92 0 -92 -146v-110h162v-32h-162v-412z" />
    <glyph glyph-name="Aringacute" unicode="&#x1fa;" horiz-adv-x="592" 
d="M366.5 829.5q26.5 -24.5 26.5 -73t-40 -72.5l211 -684h-36l-65 215h-334l-65 -215h-36l210 684q-39 24 -39 72.5t26.5 73t70.5 24.5t70.5 -24.5zM268 666l-128 -417h312l-128 417h-56zM232 762q0 -30 17 -46t47 -16h6q27 2 42.5 18t15.5 45t-17 45t-47 16t-47 -16
t-17 -46zM190 915l192 96l16 -31l-193 -92z" />
    <glyph glyph-name="aringacute" unicode="&#x1fb;" horiz-adv-x="495" 
d="M411 353v-288q4 -36 75 -42l-2 -31q-73 0 -103 42q-102 -43 -202 -43q-62 0 -96.5 37t-34.5 105.5t33 104.5t105 43l190 20v52q0 64 -27.5 93t-83.5 29q-57 0 -158 -13l-31 -4l-3 33q112 18 192 18q146 0 146 -156zM109 217q-24 -27 -24 -81t24.5 -83.5t68.5 -29.5
t93 10.5t77 20.5l28 10v205l-186 -19q-57 -6 -81 -33zM146 650q0 40 28 67.5t68 27.5t67 -27.5t27 -67.5t-27 -67.5t-67.5 -27.5t-68 27.5t-27.5 67.5zM180 650q0 -26 18 -45t43.5 -19t43.5 19t18 45t-18 44.5t-43.5 18.5t-43.5 -18.5t-18 -44.5zM148 806l192 96l16 -31
l-193 -92z" />
    <glyph glyph-name="AEacute" unicode="&#x1fc;" horiz-adv-x="879" 
d="M419 0v215h-276l-78 -215h-40l251 700h552v-34h-373v-288h313v-34h-313v-310h373v-34h-409zM419 249v417h-115l-149 -417h264zM446 826l192 96l16 -31l-193 -92z" />
    <glyph glyph-name="aeacute" unicode="&#x1fd;" horiz-adv-x="818" 
d="M715 30l30 2l2 -32q-112 -9 -185 -9q-98 0 -143 58l-38 -16q-93 -42 -206 -42q-127 0 -127 146q0 80 39 107.5t146 41.5l143 15v52q0 64 -27.5 93t-83.5 29q-51 0 -157 -7l-31 -2l-2 33q110 10 190 10q115 0 139 -96q49 96 172 96q95 0 142.5 -57t47.5 -183v-33h-355
q0 -108 34 -160.5t113 -52.5t157 7zM109 52.5q24 -29.5 66.5 -29.5t97.5 12q77 17 131 39q-30 59 -30 194l-184 -18q-55 -5 -80 -32t-25 -81.5t24 -84zM411 268h318q0 113 -36.5 161t-116.5 48q-165 0 -165 -209zM313 636l192 96l16 -31l-193 -92z" />
    <glyph glyph-name="Oslashacute" unicode="&#x1fe;" horiz-adv-x="668" 
d="M334 -9q-80 0 -134 23l-58 -123l-30 11l59 127q-59 39 -82 116t-23 202q0 184 58 273t210 89q86 0 142 -29l53 112l30 -12l-55 -118q54 -41 76 -118.5t22 -196.5q0 -191 -56.5 -273.5t-211.5 -82.5zM113.5 487.5q-9.5 -56.5 -9.5 -155t18 -166.5t65 -103l274 584
q-50 28 -123.5 28t-119.5 -21t-70.5 -65.5t-34 -101zM334 25q72 0 117.5 18.5t70 61t33.5 98.5t9 144q0 212 -77 280l-272 -581q47 -21 119 -21zM236 826l192 96l16 -31l-193 -92z" />
    <glyph glyph-name="oslashacute" unicode="&#x1ff;" horiz-adv-x="526" 
d="M263 509q53 0 86 -11l44 107l30 -11l-45 -107q46 -25 67 -79.5t21 -148.5q0 -154 -41 -211t-162 -57q-49 0 -84 9l-46 -114l-30 10l46 113q-51 23 -70 80.5t-19 182.5t46 181t157 56zM263 477q-96 0 -131 -46t-35 -159t13 -162.5t53 -69.5l174 428q-30 9 -74 9z
M351.5 34.5q32.5 11.5 50 43t22.5 71t5 117t-14 123.5t-49 67l-175 -426q27 -7 77.5 -7t83 11.5zM159 636l192 96l16 -31l-193 -92z" />
    <glyph glyph-name="Scommaaccent" unicode="&#x218;" horiz-adv-x="540" 
d="M272 -78h37l-46 -189h-28zM272 677q-178 0 -178 -140q0 -63 21 -91q12 -15 25 -25.5t38 -18.5q41 -12 104 -22q109 -17 156.5 -52.5t47.5 -124.5q0 -113 -52.5 -161.5t-159.5 -48.5q-66 0 -177 12l-37 4l4 35q138 -17 218 -17q166 0 166 173q0 73 -38 101t-117.5 40
t-113 21.5t-65 29.5t-45 54.5t-13.5 88.5q0 176 216 176q69 0 166 -12l33 -4l-4 -35q-137 17 -195 17z" />
    <glyph glyph-name="scommaaccent" unicode="&#x219;" horiz-adv-x="461" 
d="M233 -78h37l-46 -189h-28zM222 477q-134 0 -134 -100q0 -47 28 -66.5t124 -34.5t134 -40t38 -100.5t-48 -110t-142 -34.5q-51 0 -136 12l-29 4l4 33q108 -17 172 -17t103 25t39 85t-30.5 79t-125 33.5t-131.5 39t-37 82.5t27 89.5t63 42t75 10.5q81 0 152 -11l26 -4
l-2 -33q-102 16 -170 16z" />
    <glyph glyph-name="Tcommaaccent" unicode="&#x21a;" horiz-adv-x="526" 
d="M262 -78h37l-46 -189h-28zM13 666v34h500v-34h-231v-666h-36v666h-233z" />
    <glyph glyph-name="tcommaaccent" unicode="&#x21b;" horiz-adv-x="342" 
d="M203 -78h37l-46 -189h-28zM325 468h-182v-262q0 -115 16.5 -149.5t75.5 -34.5l98 8l3 -32q-66 -8 -101 -8q-71 0 -99 36.5t-28 141.5v300h-79v32h79v163h35v-163h182v-32z" />
    <glyph glyph-name="circumflex" unicode="&#x2c6;" horiz-adv-x="215" 
d="M-15 600l121 132h28l122 -132h-43l-92 100l-93 -100h-43z" />
    <glyph glyph-name="caron" unicode="&#x2c7;" horiz-adv-x="215" 
d="M106 600l-121 132h42l94 -99l93 99h42l-122 -132h-28z" />
    <glyph glyph-name="breve" unicode="&#x2d8;" horiz-adv-x="215" 
d="M-15 723h35q0 -42 27.5 -69t75.5 -27t75.5 27t27.5 69h35q0 -56 -38 -92t-100 -36t-100 36t-38 92z" />
    <glyph glyph-name="dotaccent" unicode="&#x2d9;" horiz-adv-x="215" 
d="M90 645v55h35v-55h-35z" />
    <glyph glyph-name="ring" unicode="&#x2da;" horiz-adv-x="215" 
d="M16 650q0 40 28 67.5t68 27.5t67 -27.5t27 -67.5t-27 -67.5t-67.5 -27.5t-68 27.5t-27.5 67.5zM50 650q0 -26 18 -45t43.5 -19t43.5 19t18 45t-18 44.5t-43.5 18.5t-43.5 -18.5t-18 -44.5z" />
    <glyph glyph-name="ogonek" unicode="&#x2db;" horiz-adv-x="434" 
d="M205 -116q0 -21 13 -35.5t34 -14.5l56 7l4 -33q-36 -8 -67.5 -8t-54 22t-22.5 60q0 20 21 51t41 52l21 21l35 -5q-81 -85 -81 -117z" />
    <glyph glyph-name="tilde" unicode="&#x2dc;" horiz-adv-x="215" 
d="M265 673q-42 -43 -68 -43t-81.5 27t-67.5 27q-22 0 -60 -34l-13 -11l-10 29q49 47 82 47q21 0 76.5 -26.5t66.5 -26.5q21 0 54 30l12 11z" />
    <glyph glyph-name="hungarumlaut" unicode="&#x2dd;" horiz-adv-x="215" 
d="M134 622l163 104l18 -27l-163 -104zM-51 622l163 104l18 -27l-163 -104z" />
    <glyph glyph-name="pi" unicode="&#x3c0;" 
d="M385 154v314h-204l-29 -468h-36l30 467q-77 0 -110 -9l-11 -3v32q56 13 137 13h224q73 0 127 12l18 4v-32q-31 -13 -111 -15v-315q0 -76 20 -99t79 -23v-32q-77 0 -105.5 31.5t-28.5 122.5z" />
    <glyph glyph-name="Wgrave" unicode="&#x1e80;" horiz-adv-x="856" 
d="M38 700h36l140 -666h39l153 656h44l153 -656h39l140 666h36l-147 -700h-96l-147 641l-147 -641h-96zM330 922l192 -96l-15 -27l-193 92z" />
    <glyph glyph-name="wgrave" unicode="&#x1e81;" horiz-adv-x="756" 
d="M36 500h37l127 -468h11l148 458h38l148 -458h11l127 468h37l-135 -500h-68l-139 448l-139 -448h-68zM266 732l192 -96l-15 -27l-193 92z" />
    <glyph glyph-name="Wacute" unicode="&#x1e82;" horiz-adv-x="856" 
d="M38 700h36l140 -666h39l153 656h44l153 -656h39l140 666h36l-147 -700h-96l-147 641l-147 -641h-96zM334 826l192 96l16 -31l-193 -92z" />
    <glyph glyph-name="wacute" unicode="&#x1e83;" horiz-adv-x="756" 
d="M36 500h37l127 -468h11l148 458h38l148 -458h11l127 468h37l-135 -500h-68l-139 448l-139 -448h-68zM295 636l192 96l16 -31l-193 -92z" />
    <glyph glyph-name="Wdieresis" unicode="&#x1e84;" horiz-adv-x="856" 
d="M38 700h36l140 -666h39l153 656h44l153 -656h39l140 666h36l-147 -700h-96l-147 641l-147 -641h-96zM313 838v62h35v-62h-35zM509 838v62h35v-62h-35z" />
    <glyph glyph-name="wdieresis" unicode="&#x1e85;" horiz-adv-x="756" 
d="M36 500h37l127 -468h11l148 458h38l148 -458h11l127 468h37l-135 -500h-68l-139 448l-139 -448h-68zM266 638v62h35v-62h-35zM456 638v62h35v-62h-35z" />
    <glyph glyph-name="uni1EAB" unicode="&#x1eab;" horiz-adv-x="495" 
d="M411 353v-288q4 -36 75 -42l-2 -31q-73 0 -103 42q-102 -43 -202 -43q-62 0 -96.5 37t-34.5 105.5t33 104.5t105 43l190 20v52q0 64 -27.5 93t-83.5 29q-57 0 -158 -13l-31 -4l-3 33q112 18 192 18q146 0 146 -156zM109 217q-24 -27 -24 -81t24.5 -83.5t68.5 -29.5
t93 10.5t77 20.5l28 10v205l-186 -19q-57 -6 -81 -33zM101 570l121 132h28l122 -132h-43l-92 100l-93 -100h-43zM374 773q-42 -43 -68 -43t-81.5 27t-67.5 27q-22 0 -60 -34l-13 -11l-10 29q49 47 82 47q21 0 76.5 -26.5t67.5 -26.5q20 0 54 30l11 11z" />
    <glyph glyph-name="uni1EB0" unicode="&#x1eb0;" horiz-adv-x="590" 
d="M28 0l215 700h106l213 -698h-36l-67 213h-328l-67 -215h-36zM268 666l-127 -417h308l-127 417h-54zM153 894h35q0 -40 30 -63.5t73 -23.5t73 23.5t30 63.5h35q0 -54 -40 -86.5t-98 -32.5t-98 32.5t-40 86.5zM147 1062l192 -96l-15 -27l-193 92z" />
    <glyph glyph-name="uni1EC5" unicode="&#x1ec5;" horiz-adv-x="502" 
d="M399 30l30 2l2 -32q-112 -9 -185 -9q-106 1 -147 64.5t-41 194.5q0 259 202 259q95 0 142.5 -57t47.5 -183v-33h-355q0 -108 34 -160.5t113 -52.5t157 7zM95 268h318q0 113 -36.5 161t-116.5 48q-165 0 -165 -209zM118 570l121 132h28l122 -132h-43l-92 100l-93 -100h-43
zM400 773q-42 -43 -68 -43t-81.5 27t-67.5 27q-22 0 -60 -34l-13 -11l-10 29q49 47 82 47q21 0 76.5 -26.5t67.5 -26.5q20 0 54 30l11 11z" />
    <glyph glyph-name="uni1ED7" unicode="&#x1ed7;" horiz-adv-x="526" 
d="M263 509q111 0 157 -56t46 -202t-41 -203t-162 -57t-162 57t-41 203t46 202t157 56zM263 23q56 0 88.5 11.5t50 43t22.5 71t5 110.5q0 126 -35 172t-131 46t-131 -46t-35 -172q0 -71 5 -110.5t22.5 -71t50 -43t88.5 -11.5zM118 570l121 132h28l122 -132h-43l-92 100
l-93 -100h-43zM391 773q-42 -43 -68 -43t-81.5 27t-67.5 27q-22 0 -60 -34l-13 -11l-10 29q49 47 82 47q21 0 76.5 -26.5t66.5 -26.5q21 0 54 30l12 11z" />
    <glyph glyph-name="Ygrave" unicode="&#x1ef2;" horiz-adv-x="526" 
d="M281 0h-36v301l-228 399h42l204 -359l204 359h42l-228 -399v-301zM154 922l192 -96l-15 -27l-193 92z" />
    <glyph glyph-name="ygrave" unicode="&#x1ef3;" horiz-adv-x="471" 
d="M31 500h37l147 -468h41l148 468h37l-229 -730h-37l72 230h-61zM137 732l192 -96l-15 -27l-193 92z" />
    <glyph glyph-name="uni1EF8" unicode="&#x1ef8;" horiz-adv-x="524" 
d="M281 0h-36v301l-228 399h41l205 -359l202 359h42l-226 -399v-301zM406 873q-42 -43 -68 -43t-81.5 27t-67.5 27q-22 0 -60 -34l-13 -11l-10 29q49 47 82 47q21 0 76.5 -26.5t67.5 -26.5q20 0 54 30l11 11z" />
    <glyph glyph-name="uni1EF9" unicode="&#x1ef9;" horiz-adv-x="471" 
d="M31 500h37l147 -468h41l148 468h37l-229 -730h-37l72 230h-61zM379 673q-42 -43 -68 -43t-81.5 27t-67.5 27q-22 0 -60 -34l-13 -11l-10 29q49 47 82 47q21 0 76.5 -26.5t66.5 -26.5q21 0 54 30l12 11z" />
    <glyph glyph-name="endash" unicode="&#x2013;" horiz-adv-x="643" 
d="M72 286h500v-34h-500v34z" />
    <glyph glyph-name="emdash" unicode="&#x2014;" horiz-adv-x="1143" 
d="M72 286h1000v-34h-1000v34z" />
    <glyph glyph-name="quoteleft" unicode="&#x2018;" horiz-adv-x="193" 
d="M140 727l-40 -200h-38l49 200h29z" />
    <glyph glyph-name="quoteright" unicode="&#x2019;" horiz-adv-x="191" 
d="M63 527l40 200h38l-49 -200h-29z" />
    <glyph glyph-name="quotesinglbase" unicode="&#x201a;" horiz-adv-x="192" 
d="M121 115l-40 -200h-38l49 200h29z" />
    <glyph glyph-name="quotedblleft" unicode="&#x201c;" horiz-adv-x="326" 
d="M273 727l-40 -200h-38l49 200h29zM140 727l-40 -200h-38l49 200h29z" />
    <glyph glyph-name="quotedblright" unicode="&#x201d;" horiz-adv-x="335" 
d="M63 527l40 200h38l-49 -200h-29zM207 527l40 200h38l-49 -200h-29z" />
    <glyph glyph-name="quotedblbase" unicode="&#x201e;" horiz-adv-x="317" 
d="M119 109l-40 -200h-38l49 200h29zM247 109l-40 -200h-38l49 200h29z" />
    <glyph glyph-name="dagger" unicode="&#x2020;" horiz-adv-x="477" 
d="M38 466v34h183v200h35v-200h183v-34h-183l-1 -545h-33l-1 545h-183z" />
    <glyph glyph-name="daggerdbl" unicode="&#x2021;" horiz-adv-x="527" 
d="M246 -79v200h-183v32h183v313h-183v34h183v200h35v-200h183v-34h-183v-313h183v-32h-183v-200h-35z" />
    <glyph glyph-name="bullet" unicode="&#x2022;" horiz-adv-x="488" 
d="M119 110v290h250v-290h-250z" />
    <glyph glyph-name="ellipsis" unicode="&#x2026;" horiz-adv-x="698" 
d="M75 0v80h40v-80h-40zM329 0v80h40v-80h-40zM583 0v80h40v-80h-40z" />
    <glyph glyph-name="perthousand" unicode="&#x2030;" horiz-adv-x="828" 
d="M95 612q-16 -25 -16 -76q0 -107 68 -107t68 106q0 52 -15.5 77t-52 25t-52.5 -25zM181 -1l185 670l32 -9l-186 -669zM44 536q0 133 103 133t103 -134q0 -69 -28 -103.5t-75.5 -34.5t-75 34.5t-27.5 104.5zM323 130q0 133 103 133t103 -134q0 -69 -28 -103.5t-75.5 -34.5
t-75 34.5t-27.5 104.5zM358 130q0 -107 68 -107t68 106q0 52 -15.5 77t-52 25t-52.5 -25t-16 -76zM581 130q0 133 103 133t103 -134q0 -69 -28 -103.5t-75.5 -34.5t-75 34.5t-27.5 104.5zM616 130q0 -107 68 -107t68 106q0 52 -15.5 77t-52 25t-52.5 -25t-16 -76z" />
    <glyph glyph-name="guilsinglleft" unicode="&#x2039;" horiz-adv-x="290" 
d="M215 360l-135 -106l135 -117v-41l-167 138v36l167 129v-39z" />
    <glyph glyph-name="guilsinglright" unicode="&#x203a;" horiz-adv-x="290" 
d="M210 254l-135 106v39l167 -129v-36l-167 -138v41z" />
    <glyph glyph-name="fraction" unicode="&#x2044;" horiz-adv-x="0" 
d="M-224 28l392 631l30 -19l-392 -630z" />
    <glyph glyph-name="zerosuperior" unicode="&#x2070;" horiz-adv-x="280" 
d="M56.5 761.5q28.5 37.5 83 37.5t83 -37.5t28.5 -126.5q0 -166 -111.5 -166t-111.5 167q0 88 28.5 125.5zM216 636q0 130 -76.5 130t-76.5 -132t77 -132q38 0 57 31t19 103z" />
    <glyph glyph-name="foursuperior" unicode="&#x2074;" horiz-adv-x="280" 
d="M177 478v57h-146v31l89 224h38l-87 -222h106v88h36v-88h37v-33h-37v-57h-36z" />
    <glyph glyph-name="fivesuperior" unicode="&#x2075;" horiz-adv-x="280" 
d="M234 790v-33h-143l-7 -105q31 21 68 21q92 0 92 -97q0 -107 -97 -107q-40 0 -85 9l-15 3l3 30q54 -9 97 -9q62 0 62 74q0 64 -57 64q-36 0 -62 -16l-8 -6l-31 2l9 170h174z" />
    <glyph glyph-name="sixsuperior" unicode="&#x2076;" horiz-adv-x="280" 
d="M230 759q-40 7 -78.5 7t-58 -25t-20.5 -81l11 4q38 16 63 16q100 0 100 -101q0 -51 -27 -80.5t-76 -29.5q-107 0 -107 164q0 89 28.5 127.5t86.5 38.5q26 0 68 -7l12 -2zM144 502q68 0 68 73t-57 73q-41 0 -73 -16q-10 -6 -10 -7q2 -63 18.5 -93t53.5 -30z" />
    <glyph glyph-name="sevensuperior" unicode="&#x2077;" horiz-adv-x="280" 
d="M32 756v34h192v-61l-111 -259l-34 9l109 252v25h-156z" />
    <glyph glyph-name="eightsuperior" unicode="&#x2078;" horiz-adv-x="280" 
d="M140 799q106 0 106 -82q0 -33 -11 -48t-43 -25q31 -9 45 -27.5t14 -53.5q0 -94 -111 -94t-111 88q0 38 13.5 56t45.5 31q-30 11 -42 26.5t-12 46.5q0 82 106 82zM140 502q76 0 76 60q0 29 -13.5 43.5t-44.5 22.5h-36q-30 -8 -44 -23t-14 -46q0 -57 76 -57zM140 766
q-71 0 -71 -49q0 -25 11.5 -36.5t41.5 -20.5h36q30 8 41.5 20t11.5 36q0 50 -71 50z" />
    <glyph glyph-name="ninesuperior" unicode="&#x2079;" horiz-adv-x="280" 
d="M128 502q82 0 84 105q-43 -17 -84 -17t-68 28t-27 77t29 76.5t75 27.5q110 0 110 -168q0 -84 -29.5 -123t-89.5 -39q-32 0 -70 7l-12 3l3 30q42 -7 79 -7zM200 636l12 4q-2 65 -18.5 95.5t-52.5 30.5q-73 0 -73 -71q0 -32 17.5 -52.5t48 -20.5t66.5 14z" />
    <glyph glyph-name="zeroinferior" unicode="&#x2080;" horiz-adv-x="280" 
d="M56.5 183.5q28.5 37.5 83 37.5t83 -37.5t28.5 -126.5q0 -166 -111.5 -166t-111.5 167q0 88 28.5 125.5zM216 58q0 130 -76.5 130t-76.5 -132t77 -132q38 0 57 31t19 103z" />
    <glyph glyph-name="oneinferior" unicode="&#x2081;" horiz-adv-x="280" 
d="M194 212v-312h-35v273l-82 -56l-17 28l99 67h35z" />
    <glyph glyph-name="twoinferior" unicode="&#x2082;" horiz-adv-x="280" 
d="M241 -100h-194v31l98 107q33 35 43.5 57.5t10.5 45t-16 35.5t-36 13q-35 0 -80 -7l-15 -3l-2 29q51 13 93 13q91 0 91 -85q0 -33 -14.5 -58.5t-49.5 -61.5l-80 -83h151v-33z" />
    <glyph glyph-name="threeinferior" unicode="&#x2083;" horiz-adv-x="280" 
d="M42 210q53 11 100 11t69.5 -19t22.5 -52.5t-11 -52.5q-15 -25 -35 -32q29 -8 42 -25t13 -56q0 -93 -98 -93q-48 0 -91 8l-16 3l3 31q54 -9 95 -9t56.5 16t15.5 43q0 62 -60 62h-65v33h65q18 0 34.5 19t16.5 44q0 47 -58 47q-46 0 -82 -6l-14 -3z" />
    <glyph glyph-name="fourinferior" unicode="&#x2084;" horiz-adv-x="280" 
d="M186 -100v57h-146v31l89 224h38l-87 -222h106v88h36v-88h37v-33h-37v-57h-36z" />
    <glyph glyph-name="fiveinferior" unicode="&#x2085;" horiz-adv-x="280" 
d="M225 212v-33h-143l-7 -105q31 21 68 21q92 0 92 -97q0 -107 -97 -107q-40 0 -85 9l-15 3l3 30q54 -9 97 -9q62 0 62 74q0 64 -57 64q-36 0 -61 -16l-9 -6l-31 2l9 170h174z" />
    <glyph glyph-name="sixinferior" unicode="&#x2086;" horiz-adv-x="280" 
d="M227 181q-40 7 -78.5 7t-58 -25t-20.5 -81l11 4q38 16 63 16q100 0 100 -101q0 -51 -27 -80.5t-76 -29.5q-107 0 -107 164q0 89 28.5 127.5t86.5 38.5q26 0 68 -7l12 -2zM141 -76q68 0 68 73t-57 73q-41 0 -72 -16q-11 -6 -11 -7q2 -63 18.5 -93t53.5 -30z" />
    <glyph glyph-name="seveninferior" unicode="&#x2087;" horiz-adv-x="280" 
d="M45 178v34h192v-61l-111 -259l-34 9l109 252v25h-156z" />
    <glyph glyph-name="eightinferior" unicode="&#x2088;" horiz-adv-x="280" 
d="M139 221q106 0 106 -82q0 -33 -11 -48t-43 -25q31 -9 45 -27.5t14 -53.5q0 -94 -111 -94t-111 88q0 38 13.5 56t45.5 31q-30 11 -42 26.5t-12 46.5q0 82 106 82zM139 -76q76 0 76 60q0 29 -13.5 43.5t-44.5 22.5h-36q-30 -8 -44 -23t-14 -46q0 -57 76 -57zM139 188
q-71 0 -71 -49q0 -25 11.5 -36.5t41.5 -20.5h36q30 8 41.5 20t11.5 36q0 50 -71 50z" />
    <glyph glyph-name="nineinferior" unicode="&#x2089;" horiz-adv-x="280" 
d="M126 -76q82 0 84 105q-43 -17 -84 -17t-68 28t-27 77t29 76.5t75 27.5q110 0 110 -168q0 -84 -29.5 -123t-89.5 -39q-32 0 -70 7l-12 3l3 30q42 -7 79 -7zM198 58l12 4q-2 65 -18.5 95.5t-52.5 30.5q-73 0 -73 -71q0 -32 17.5 -52.5t48 -20.5t66.5 14z" />
    <glyph glyph-name="Euro" unicode="&#x20ac;" 
d="M32 393v34h66q11 120 62.5 181t169.5 61q89 0 175 -18l-3 -33q-84 19 -179 19t-138 -52.5t-51 -157.5h320v-34h-322q-1 -21 -1 -60t1 -54h322v-34h-321q8 -112 50.5 -166.5t146.5 -54.5q74 0 172 18l3 -32q-94 -18 -175 -18q-119 0 -171 62.5t-62 190.5h-65v34h63v49
q0 44 1 65h-64z" />
    <glyph glyph-name="trademark" unicode="&#x2122;" horiz-adv-x="689" 
d="M99 590v31h200v-31h-83v-258h-33v258h-84zM334 331v290h50l84 -242l87 242h50v-290h-32v258l-88 -247h-35l-84 247v-258h-32z" />
    <glyph glyph-name="Omega" unicode="&#x2126;" 
d="M41 25h151q-76 136 -108 259q-13 50 -13 86q0 157 43 228.5t166 71.5t166 -71.5t43 -228.5q0 -57 -30.5 -143t-60.5 -144l-31 -58h152v-34h-189v29q44 82 82.5 187t38.5 158.5t-3.5 93t-14 76t-29.5 57.5q-40 44 -124 44q-85 0 -126 -44q-45 -51 -45 -232
q0 -48 30.5 -133t60.5 -146l30 -61v-29h-189v34z" />
    <glyph glyph-name="partialdiff" unicode="&#x2202;" 
d="M268 739q112 0 166 -86t54 -281t-51 -288t-158 -93t-164 58.5t-57 159t55 158.5t149 58q39 0 86.5 -8.5t75.5 -16.5l27 -9q-2 165 -46 239.5t-143 74.5q-32 0 -72 -13t-64 -26l-24 -13l-4 32q10 6 26 15t61 24t83 15zM452 356q-107 35 -187 35t-125.5 -49t-45.5 -134
t46.5 -134t136.5 -49t131.5 81.5t43.5 249.5z" />
    <glyph glyph-name="Delta" unicode="&#x2206;" 
d="M59 0v26l182 634h76l182 -634l1 -26h-441zM291 626h-25l-167 -592h359z" />
    <glyph glyph-name="product" unicode="&#x220f;" 
d="M414 -151v867h-268v-867h-36v867h-80v34h500v-34h-80v-867h-36z" />
    <glyph glyph-name="summation" unicode="&#x2211;" 
d="M53 749h450v-34h-413v-27l284 -360v-30l-284 -383v-32h413v-34h-450v75l286 390l-286 362v73z" />
    <glyph glyph-name="minus" unicode="&#x2212;" 
d="M69 234v34h422v-34h-422z" />
    <glyph glyph-name="radical" unicode="&#x221a;" 
d="M6 416v34h93l152 -558h8l269 876h37l-281 -908h-60l-157 556h-61z" />
    <glyph glyph-name="infinity" unicode="&#x221e;" 
d="M148 121q-116 0 -116 171q0 81 28.5 126t82.5 45t83.5 -31.5t53.5 -95.5q24 64 53 95.5t83.5 31.5t83 -45t28.5 -126q0 -171 -116 -171q-51 0 -79.5 31.5t-52.5 94.5q-25 -75 -51 -100.5t-81 -25.5zM147 428q-77 0 -77 -136t77 -136q48 0 67 25q19 23 48 103q2 4 3 8
q-36 96 -61 116t-57 20zM413 156q77 0 77 136t-77 136q-51 0 -77 -45q-19 -32 -41 -91q36 -96 61 -116t57 -20z" />
    <glyph glyph-name="integral" unicode="&#x222b;" 
d="M297 0q0 -99 -29 -139t-98 -40l-82 5l2 33q48 -5 80 -5q51 0 71.5 32t20.5 114v564q0 117 32 166t95 49l83 -6l-2 -32q-41 5 -84 5t-66 -41t-23 -141v-564z" />
    <glyph glyph-name="approxequal" unicode="&#x2248;" 
d="M380 274q-30 0 -104 36.5t-92 36.5q-33 0 -87 -39l-18 -13l-11 32q63 54 113 54q30 0 104 -36.5t92 -36.5t43.5 13t43.5 26l17 13l11 -31q-62 -55 -112 -55zM380 112q-30 0 -104 36.5t-92 36.5q-33 0 -87 -39l-18 -13l-11 32q63 54 113 54q30 0 104 -36.5t92 -36.5
t43.5 13t43.5 26l17 13l11 -31q-62 -55 -112 -55z" />
    <glyph glyph-name="notequal" unicode="&#x2260;" 
d="M68 318v34h248l68 157l32 -13l-63 -144h139v-34h-154l-59 -135h213v-34h-228l-68 -158l-32 13l63 145h-159v34h174l59 135h-233z" />
    <glyph glyph-name="lessequal" unicode="&#x2264;" 
d="M489 446l-378 -137l378 -148v-39l-424 168v36l424 159v-39zM65 24v34h424v-34h-424z" />
    <glyph glyph-name="greaterequal" unicode="&#x2265;" 
d="M448 309l-378 137v39l424 -159v-36l-424 -168v39zM494 58v-34h-424v34h424z" />
    <glyph glyph-name="lozenge" unicode="&#x25ca;" 
d="M60 332l182 328h76l182 -328l-182 -332h-76zM458 332l-165 294h-27l-164 -294l164 -298h27z" />
    <glyph glyph-name="dotlessj" unicode="&#xf6be;" horiz-adv-x="192" 
d="M79 6v494h35v-495q0 -85 -31.5 -129.5t-127.5 -93.5l-14 31q86 47 112 83.5t26 109.5z" />
    <glyph glyph-name="commaaccent" unicode="&#xf6c3;" horiz-adv-x="170" 
d="M42 -267l37 189h37l-46 -189h-28z" />
    <glyph glyph-name="questiondown.cap" horiz-adv-x="447" 
d="M43 150q0 61 18.5 93.5t68 76t65 58.5t31.5 42t16 53v38h34q1 -22 1 -43t-8 -42.5t-27 -43.5q-30 -34 -79 -78t-67 -74t-18 -80q0 -69 40.5 -97t124.5 -28q43 0 131 21l30 7l5 -34q-112 -27 -166 -27q-99 0 -149.5 36.5t-50.5 121.5zM279 700v-80h-40v80h40z" />
    <glyph glyph-name="endash.cap" horiz-adv-x="643" 
d="M72 316h500v-34h-500v34z" />
    <glyph glyph-name="emdash.cap" horiz-adv-x="1143" 
d="M72 316h1000v-34h-1000v34z" />
    <glyph glyph-name="periodcentered.cap" horiz-adv-x="190" 
d="M75 300v80h40v-80h-40z" />
    <glyph glyph-name="exclamdown.cap" horiz-adv-x="225" 
d="M132 699v-80h-40v80h40zM130 485v-486h-35v486h35z" />
    <glyph glyph-name="parenleft.cap" horiz-adv-x="234" 
d="M96 331.5q0 -83.5 24 -190t48 -171.5l23 -65h-35q-11 25 -27 68t-43 156t-27 202t24.5 201t48.5 180l24 68h35q-34 -89 -64.5 -227t-30.5 -221.5z" />
    <glyph glyph-name="parenright.cap" horiz-adv-x="234" 
d="M139 358.5q0 83.5 -23.5 190t-47.5 171.5l-24 65h35q11 -25 27 -68t43 -156t27 -202t-24 -201t-48 -180l-25 -68h-35q34 89 64.5 227t30.5 221.5z" />
    <glyph glyph-name="bracketleft.cap" horiz-adv-x="311" 
d="M268 779v-32h-147v-808h147v-32h-182v872h182z" />
    <glyph glyph-name="bracketright.cap" horiz-adv-x="311" 
d="M43 747v32h182v-872h-182v32h147v808h-147z" />
    <glyph glyph-name="braceleft.cap" horiz-adv-x="346" 
d="M169 199q-7 -70 -7 -116q0 -71 31 -106t112 -39l-2 -32q-95 4 -135.5 45.5t-40.5 131.5l7 123q0 48 -23.5 75t-80.5 43v32q57 14 80.5 42t23.5 78l-7 128q0 90 40.5 131.5t135.5 45.5l2 -32q-82 -4 -112.5 -38.5t-30.5 -106.5l7 -119q0 -65 -22 -95.5t-78 -48.5
q56 -18 78 -49t22 -93z" />
    <glyph glyph-name="braceright.cap" horiz-adv-x="345" 
d="M177 488q7 70 7 116q0 71 -31 106t-112 39l2 32q95 -4 135.5 -45.5t40.5 -131.5l-7 -123q0 -48 23.5 -75t80.5 -43v-32q-57 -14 -80.5 -42t-23.5 -78l7 -128q0 -90 -40.5 -131.5t-135.5 -45.5l-2 32q82 4 112.5 38.5t30.5 106.5l-7 119q0 65 22 95.5t78 48.5
q-56 18 -78 49t-22 93z" />
    </font>
</defs>
</svg>
