<?xml version="1.0" standalone="no"?>
<!DOCTYPE svg PUBLIC "-//W3C//DTD SVG 1.1//EN" "http://www.w3.org/Graphics/SVG/1.1/DTD/svg11.dtd" >
<svg xmlns="http://www.w3.org/2000/svg" xmlns:xlink="http://www.w3.org/1999/xlink" version="1.1">
<metadata>
Created by FontForge 20170731 at Fri May  5 14:19:03 2017
 By Aleksey,,,
Copyright (c) 2009-2011 by Accademia di Belle Arti di Urbino and students of MA course of Visual design. Some rights reserved.
</metadata>
<defs>
<font id="TitilliumWeb-Light" horiz-adv-x="560" >
  <font-face 
    font-family="Titillium Web Light"
    font-weight="300"
    font-stretch="normal"
    units-per-em="1000"
    panose-1="0 0 4 0 0 0 0 0 0 0"
    ascent="800"
    descent="-200"
    x-height="500"
    cap-height="695"
    bbox="-224 -278 1068 1075"
    underline-thickness="30"
    underline-position="-140"
    unicode-range="U+0020-F6C3"
  />
<missing-glyph horiz-adv-x="235" 
 />
    <glyph glyph-name=".notdef" horiz-adv-x="235" 
 />
    <glyph glyph-name=".null" horiz-adv-x="0" 
 />
    <glyph glyph-name="nonmarkingreturn" horiz-adv-x="333" 
 />
    <glyph glyph-name="space" unicode=" " horiz-adv-x="220" 
 />
    <glyph glyph-name="exclam" unicode="!" horiz-adv-x="239" 
d="M87 0v100h66v-100h-66zM91 223l-3 472h63l-4 -472h-56z" />
    <glyph glyph-name="quotedbl" unicode="&#x22;" horiz-adv-x="364" 
d="M291 477h-55l-3 218h62zM127 477h-54l-4 218h62z" />
    <glyph glyph-name="numbersign" unicode="#" 
d="M533 180h-114v-180h-56v180h-167v-180h-56v180h-114v52h114v201h-114v52h114v182h56v-182h167v182h56v-182h114v-52h-114v-201h114v-52zM363 232v201h-167v-201h167z" />
    <glyph glyph-name="dollar" unicode="$" 
d="M490 193q0 -106 -52.5 -153.5t-154.5 -47.5h-17l-15 -115q-45 3 -45 7l14 111l-143 15l7 51q77 -10 143 -14l35 268q-51 10 -82.5 21.5t-57.5 31.5q-50 37 -50 129q0 173 209 173q17 0 27 -1l16 126h45l-17 -129l123 -14l-4 -51q-68 8 -126 13l-32 -251q95 -20 136 -55.5
t41 -114.5zM132 501q0 -63 29.5 -88t107.5 -41l32 245h-16q-153 0 -153 -116zM281 45q149 0 149 133q0 65 -27.5 89t-96.5 39l-33 -261h8z" />
    <glyph glyph-name="percent" unicode="%" 
d="M162 -3l198 679l42 -13l-198 -678zM139 670q107 0 107 -137q0 -70 -28.5 -105t-78.5 -35t-78.5 35t-28.5 106q0 136 107 136zM83 534q0 -97 56 -97q31 0 44 23.5t13 72t-13 71t-43.5 22.5t-43.5 -22.5t-13 -69.5zM314 131q0 136 107.5 136t107.5 -137q0 -70 -29 -105
t-79 -35t-78.5 35t-28.5 106zM365 131q0 -97 56.5 -97t56.5 96q0 48 -13 70.5t-43.5 22.5t-43.5 -22t-13 -70z" />
    <glyph glyph-name="ampersand" unicode="&#x26;" horiz-adv-x="685" 
d="M190.5 658.5q43.5 39.5 124.5 39.5t122.5 -39.5t41.5 -109.5t-36 -110.5t-122 -76.5l164 -163q10 26 19.5 79t11.5 92l59 -1q-13 -130 -45 -209l133 -127l-37 -41l-125 119q-67 -121 -217 -121q-131 0 -185.5 54.5t-54.5 151.5t36.5 140.5t121.5 69.5q-34 39 -44.5 69.5
t-10.5 77.5q0 66 43.5 105.5zM281 45q127 0 178 103l-221 219q-74 -21 -104 -56t-30 -109q0 -157 177 -157zM207 545q0 -69 45 -114l31 -32q76 30 105.5 60.5t29.5 86.5q0 100 -105.5 100t-105.5 -101z" />
    <glyph glyph-name="quotesingle" unicode="'" horiz-adv-x="200" 
d="M72 477l-3 218h63l-6 -218h-54z" />
    <glyph glyph-name="parenleft" unicode="(" horiz-adv-x="252" 
d="M118 301.5q0 -84.5 24 -191t48 -170.5l23 -65h-58q-11 24 -28 66t-45 154.5t-28 188.5t10.5 144t25.5 122q29 110 54 174l11 26h58q-34 -91 -64.5 -227.5t-30.5 -221z" />
    <glyph glyph-name="parenright" unicode=")" horiz-adv-x="252" 
d="M199 301q0 -93 -25.5 -199.5t-50.5 -166.5l-25 -60h-58q35 86 65 214t30 212.5t-23.5 196.5t-47.5 182l-24 70h58q11 -27 28 -72.5t45 -164.5t28 -212z" />
    <glyph glyph-name="asterisk" unicode="*" horiz-adv-x="419" 
d="M369 514h-134l41 -127l-42 -13l-42 128l-108 -79l-26 35l109 79l-108 79l27 36l108 -79l41 127l43 -14l-41 -128h132v-44z" />
    <glyph glyph-name="plus" unicode="+" 
d="M57 223v56h193v201h57v-201h196v-56h-196v-203h-57v203h-193z" />
    <glyph glyph-name="comma" unicode="," horiz-adv-x="213" 
d="M38 -123l44 222h67l-61 -222h-50z" />
    <glyph glyph-name="hyphen" unicode="-" horiz-adv-x="445" 
d="M71 249v56h304v-56h-304z" />
    <glyph glyph-name="period" unicode="." horiz-adv-x="206" 
d="M70 0v101h66v-101h-66z" />
    <glyph glyph-name="slash" unicode="/" horiz-adv-x="398" 
d="M32 11l280 695l54 -21l-279 -694z" />
    <glyph glyph-name="zero" unicode="0" 
d="M150.5 640.5q49.5 29.5 119 29.5t111.5 -16.5t73 -55.5q62 -76 62 -268.5t-59.5 -266t-177.5 -73.5t-177 72.5t-59 255.5q0 135 29 214t78.5 108.5zM377 590q-36 25 -97.5 25t-97.5 -24q-75 -51 -75 -274q0 -155 42 -213t131 -58q58 0 94 22q78 48 78 250q0 220 -75 272z
" />
    <glyph glyph-name="one" unicode="1" 
d="M381 660v-660h-61v592l-176 -118l-29 48l208 138h58z" />
    <glyph glyph-name="two" unicode="2" 
d="M491 0h-421v52l206 218q50 53 72.5 79.5t41 64.5t18.5 77q0 67 -37.5 95t-115.5 28q-66 0 -147 -18l-27 -6l-5 53q94 27 193.5 27t151 -41.5t51.5 -132.5q0 -69 -31 -120t-104 -124l-192 -198h346v-54z" />
    <glyph glyph-name="three" unicode="3" 
d="M75 645q94 25 199.5 25t153 -40t47.5 -129q0 -99 -92 -145l-12 -6q61 -19 91 -53t30 -111q0 -99 -51.5 -147.5t-160.5 -48.5q-94 0 -186 20l-30 6l6 52q107 -22 205 -22q153 0 153 137q0 128 -145 135h-134v54h133q45 0 87 35t42 95t-32.5 86.5t-111.5 26.5t-161 -16
l-25 -5z" />
    <glyph glyph-name="four" unicode="4" 
d="M370 0v134h-330v48l194 478h68l-195 -471h263v211h62v-211h89v-55h-89v-134h-62z" />
    <glyph glyph-name="five" unicode="5" 
d="M473 660v-57h-327l-18 -233q80 44 164 44q210 0 210 -194q0 -112 -58 -170t-162 -58q-85 0 -184 20l-32 7l8 51q113 -23 195 -23t125.5 44t43.5 123.5t-40 112t-112 32.5q-38 0 -79 -11.5t-63 -23.5l-23 -11l-46 8l19 339h379z" />
    <glyph glyph-name="six" unicode="6" 
d="M478 604q-87 10 -174.5 10t-136.5 -63.5t-49 -182.5l26 10q85 32 149 32q220 0 220 -202q0 -104 -59 -161t-169 -57q-231 0 -231 344q0 172 66.5 254t186.5 82q68 0 151 -12l26 -3zM289 355q-36 0 -79 -10.5t-68 -21.5l-25 -11q3 -266 168 -266q80 0 122 41.5t42 118.5
q0 149 -160 149z" />
    <glyph glyph-name="seven" unicode="7" 
d="M79 604v56h407v-88l-259 -582l-59 20l255 568v26h-344z" />
    <glyph glyph-name="eight" unicode="8" 
d="M278 670q111 0 174.5 -42.5t63.5 -126.5q0 -62 -28 -96.5t-92 -58.5q64 -24 97 -61.5t33 -105.5q0 -189 -248 -189q-110 0 -178 41.5t-68 136.5q0 73 30 110t92 68q-57 26 -84 60.5t-27 95.5q0 84 62 126t173 42zM278 47q86 0 134.5 30.5t48.5 98.5t-33.5 95.5
t-98.5 44.5h-110q-60 -16 -90 -48t-30 -91q0 -130 179 -130zM450 495q0 119 -170.5 119t-170.5 -118q0 -50 26.5 -78.5t83.5 -47.5h110q61 17 91 46.5t30 78.5z" />
    <glyph glyph-name="nine" unicode="9" 
d="M76 57q87 -11 178 -11q185 0 187 246l-29 -10q-91 -30 -154 -30q-214 0 -214 199q0 100 61.5 159.5t164.5 59.5q119 0 177 -90.5t58 -263.5t-65 -249.5t-193 -76.5q-75 0 -151 12l-26 4zM262 307q32 0 77 10t74 20l29 10q-5 267 -172 267q-75 0 -118.5 -44t-43.5 -119
q0 -144 154 -144z" />
    <glyph glyph-name="colon" unicode=":" horiz-adv-x="207" 
d="M70 330v102h66v-102h-66zM70 0v101h66v-101h-66z" />
    <glyph glyph-name="semicolon" unicode=";" horiz-adv-x="241" 
d="M96 99h69l-62 -222h-50zM92 330v102h66v-102h-66z" />
    <glyph glyph-name="less" unicode="&#x3c;" 
d="M479 423l-359 -171l359 -174v-64l-420 210v54l420 208v-63z" />
    <glyph glyph-name="equal" unicode="=" 
d="M65 312v56h429v-56h-429zM65 133v56h429v-56h-429z" />
    <glyph glyph-name="greater" unicode="&#x3e;" 
d="M439 252l-359 171v63l420 -208v-54l-420 -210v64z" />
    <glyph glyph-name="question" unicode="?" horiz-adv-x="449" 
d="M406 545q0 -63 -18 -96.5t-72 -79.5t-76 -74t-22 -62v-36h-52q-9 25 -9 57.5t24.5 64.5t77 77.5t69.5 72.5t17 79t-35 77t-110 25q-50 0 -128 -18l-28 -7l-6 51q106 29 167 29q101 0 151 -37.5t50 -122.5zM158 1v100h66v-100h-66z" />
    <glyph glyph-name="at" unicode="@" horiz-adv-x="977" 
d="M930 305v-15q0 -221 -66 -270q-24 -18 -47 -23t-54 -5t-53 6.5t-34 15.5q-23 19 -30 40q-41 -24 -93.5 -42.5t-83.5 -18.5t-52 4t-45.5 19t-41.5 42q-38 61 -38 191t45.5 194t159.5 64q49 0 103 -20l19 -7v17h60v-195q0 -179 13 -218q4 -14 14 -25.5t22.5 -13.5t34 -2
t35.5 3.5t29 17t23 39.5q18 64 18 187v16q0 191 -84 276.5t-282 85.5t-292 -95t-94 -317t90.5 -313t297.5 -91l143 10l3 -54q-96 -10 -146 -10q-116 0 -196 22t-139 74q-115 101 -115 355.5t112.5 363t337 108.5t325.5 -101.5t101 -314.5zM629 98q-4 16 -7 82.5t-3 106.5
v143q-65 23 -114 23q-89 0 -121 -50t-32 -160q0 -123 38 -163q33 -33 85 -33t154 51z" />
    <glyph glyph-name="A" unicode="A" horiz-adv-x="594" 
d="M25 0l200 695h145l199 -695h-61l-56 192h-310l-55 -192h-62zM270 641l-113 -394h280l-113 394h-54z" />
    <glyph glyph-name="B" unicode="B" horiz-adv-x="617" 
d="M87 695h247q205 0 205 -175q0 -123 -92 -162q115 -36 115 -165q0 -105 -54.5 -149t-158.5 -44h-262v695zM342 327h-193v-272h199q73 0 112 31t39 109q0 132 -157 132zM332 640h-183v-259h192q70 0 102.5 33.5t32.5 99.5t-35.5 96t-108.5 30z" />
    <glyph glyph-name="C" unicode="C" horiz-adv-x="544" 
d="M502 11q-103 -21 -176 -21t-117.5 15.5t-72.5 43.5t-44 73q-30 82 -30 223q0 226 72 299q59 61 180 61q83 0 188 -21l-3 -54q-104 19 -167 19t-97.5 -13.5t-56 -36t-32.5 -62.5q-20 -68 -20 -170t7 -152.5t27 -91.5t59 -59t108 -18t172 19z" />
    <glyph glyph-name="D" unicode="D" horiz-adv-x="646" 
d="M340 0h-253v695h253q247 0 247 -338q0 -357 -247 -357zM523 357q0 282 -183 282h-191v-584h191q183 0 183 302z" />
    <glyph glyph-name="E" unicode="E" horiz-adv-x="552" 
d="M87 0v695h417v-56h-355v-258h295v-55h-295v-271h355v-55h-417z" />
    <glyph glyph-name="F" unicode="F" horiz-adv-x="525" 
d="M87 0v695h410v-56h-348v-287h296v-55h-296v-297h-62z" />
    <glyph glyph-name="G" unicode="G" horiz-adv-x="617" 
d="M360 296v55h189v-336q-29 -6 -102 -15.5t-121 -9.5q-150 0 -208 88t-58 267q0 89 12 152t42 112q57 96 211 96q94 0 191 -19l33 -7l-3 -53q-125 23 -216 23q-121 0 -163.5 -72.5t-42.5 -230.5t42.5 -229t162.5 -71q71 0 159 16v234h-128z" />
    <glyph glyph-name="H" unicode="H" horiz-adv-x="675" 
d="M526 0v321h-377v-321h-62v695h62v-319h377v319h61v-695h-61z" />
    <glyph glyph-name="I" unicode="I" horiz-adv-x="236" 
d="M87 0v695h62v-695h-62z" />
    <glyph glyph-name="J" unicode="J" horiz-adv-x="285" 
d="M201 695v-606q0 -56 -9.5 -88.5t-35 -48.5t-54.5 -20t-84 -4v55q43 0 62 2.5t35.5 14.5t20.5 35t4 67v593h61z" />
    <glyph glyph-name="K" unicode="K" horiz-adv-x="563" 
d="M149 0h-62v695h62v-328l120 3l193 325h71l-210 -349l223 -346h-74l-202 314l-121 -2v-312z" />
    <glyph glyph-name="L" unicode="L" horiz-adv-x="480" 
d="M467 0h-380v695h62v-639h318v-56z" />
    <glyph glyph-name="M" unicode="M" horiz-adv-x="835" 
d="M87 0v695h116l215 -608l214 608h116v-695h-62v631h-14l-218 -608h-73l-218 608h-14v-631h-62z" />
    <glyph glyph-name="N" unicode="N" horiz-adv-x="672" 
d="M87 0v695h122l291 -640h23v640h61v-695h-120l-293 639h-22v-639h-62z" />
    <glyph glyph-name="O" unicode="O" horiz-adv-x="662" 
d="M166 115.5q42 -69.5 165.5 -69.5t165.5 68t42 227.5t-44 233.5t-164 74q-124 0 -167 -80q-23 -41 -31.5 -94t-8.5 -131q0 -159 42 -228.5zM544.5 73q-58.5 -83 -213 -83t-213 85t-58.5 268.5t59 272.5t212 89t212.5 -88.5t59.5 -274.5t-58.5 -269z" />
    <glyph glyph-name="P" unicode="P" horiz-adv-x="593" 
d="M341 242h-192v-242h-62v695h254q111 0 163.5 -54t52.5 -166q0 -233 -216 -233zM149 297h192q152 0 152 178q0 85 -36 125t-116 40h-192v-343z" />
    <glyph glyph-name="Q" unicode="Q" horiz-adv-x="662" 
d="M331 -10q-154 0 -212.5 85t-58.5 268.5t59 272.5t212 89t212.5 -88.5t59.5 -272.5q0 -131 -26.5 -208t-90.5 -113l85 -138l-59 -28l-87 144q-39 -11 -94 -11zM166 115.5q42 -69.5 165.5 -69.5t165.5 67.5t42 227.5t-44 234t-164 74q-124 0 -167 -80q-23 -41 -31.5 -94
t-8.5 -131q0 -159 42 -228.5z" />
    <glyph glyph-name="R" unicode="R" horiz-adv-x="615" 
d="M149 274v-274h-62v695h255q109 0 162.5 -49.5t53.5 -156.5q0 -167 -134 -203l143 -286h-69l-137 274h-212zM494 488q0 78 -37 115t-115 37h-193v-311h193q152 0 152 159z" />
    <glyph glyph-name="S" unicode="S" horiz-adv-x="541" 
d="M275 651q-161 0 -161 -123q0 -72 36.5 -97t143 -46t152 -58t45.5 -124q0 -112 -55.5 -161.5t-162.5 -49.5q-78 0 -181 14l-36 5l7 53q137 -17 212 -17t114 36.5t39 107t-34.5 96t-110 39.5t-110.5 25.5t-65.5 33t-43.5 55t-13 84.5q0 182 220 182q66 0 172 -14l33 -5
l-5 -53q-138 17 -196 17z" />
    <glyph glyph-name="T" unicode="T" horiz-adv-x="526" 
d="M13 639v56h500v-56h-218v-639h-62v639h-220z" />
    <glyph glyph-name="U" unicode="U" horiz-adv-x="642" 
d="M144 204q0 -158 173 -158q90 0 135 37t45 121v491h62v-491q0 -113 -61 -163.5t-178.5 -50.5t-177 50.5t-59.5 163.5v491h61v-491z" />
    <glyph glyph-name="V" unicode="V" horiz-adv-x="577" 
d="M487 695h63l-186 -695h-151l-187 695h64l169 -640h59z" />
    <glyph glyph-name="W" unicode="W" horiz-adv-x="874" 
d="M33 695h63l126 -640h33l146 632h73l145 -632h33l126 640h63l-143 -695h-124l-137 610l-137 -610h-124z" />
    <glyph glyph-name="X" unicode="X" horiz-adv-x="555" 
d="M91 695l188 -307l187 307h68l-216 -352l216 -343h-70l-186 300l-189 -300h-68l218 342l-218 353h70z" />
    <glyph glyph-name="Y" unicode="Y" horiz-adv-x="534" 
d="M298 0h-62v294l-223 401h69l185 -337l184 337h70l-223 -401v-294z" />
    <glyph glyph-name="Z" unicode="Z" horiz-adv-x="537" 
d="M43 639v56h450v-83l-381 -536v-21h381v-56h-450v82l381 536v22h-381z" />
    <glyph glyph-name="bracketleft" unicode="[" horiz-adv-x="322" 
d="M281 749v-54h-139v-764h139v-54h-200v872h200z" />
    <glyph glyph-name="backslash" unicode="\" horiz-adv-x="421" 
d="M390 14l-55 -23l-305 690l54 24z" />
    <glyph glyph-name="bracketright" unicode="]" horiz-adv-x="322" 
d="M41 695v54h200v-872h-200v54h139v764h-139z" />
    <glyph glyph-name="asciicircum" unicode="^" 
d="M431 320l-153 280l-146 -280h-65l183 340h56l190 -340h-65z" />
    <glyph glyph-name="underscore" unicode="_" horiz-adv-x="635" 
d="M103 -96h428v-54h-428v54z" />
    <glyph glyph-name="grave" unicode="`" horiz-adv-x="228" 
d="M25 737l207 -97l-19 -42l-210 87z" />
    <glyph glyph-name="a" unicode="a" horiz-adv-x="499" 
d="M419 351v-268q4 -37 65 -44l-3 -48q-77 0 -113 40q-94 -41 -188 -41q-67 0 -102 38.5t-35 110t35.5 106t111.5 42.5l170 17v47q0 56 -24.5 80.5t-65.5 24.5q-64 0 -166 -12l-31 -3l-3 48q110 21 192.5 21t119.5 -39t37 -120zM105 142q0 -101 83 -101q36 0 79 8.5t68 17.5
l25 9v181l-163 -17q-49 -4 -70.5 -28t-21.5 -70z" />
    <glyph glyph-name="b" unicode="b" horiz-adv-x="521" 
d="M290 510q100 0 139 -58t39 -200.5t-49.5 -202t-184.5 -59.5q-56 0 -134 8l-26 2v722h60v-249q78 37 156 37zM134 50q70 -6 112.5 -6t76.5 12t52.5 40.5t24.5 65t6 96.5q0 106 -25.5 152t-95.5 46q-34 0 -72 -8.5t-59 -17.5l-20 -8v-372z" />
    <glyph glyph-name="c" unicode="c" horiz-adv-x="433" 
d="M261 510q45 0 107 -10l23 -3l-3 -51q-79 10 -117 10q-89 0 -122 -43.5t-33 -160t30 -162.5t125 -46l119 9l2 -51q-89 -12 -132 -12q-119 0 -162.5 59t-43.5 203t47.5 201t159.5 57z" />
    <glyph glyph-name="d" unicode="d" horiz-adv-x="523" 
d="M449 722v-722h-60v37q-79 -47 -160 -47q-37 0 -64 8.5t-55 33.5q-57 51 -57 199.5t48 213.5t162 65q44 0 126 -13v225h60zM191.5 51q18.5 -7 48 -7t68 11t60.5 21l21 11v358q-80 12 -124 12q-85 0 -117.5 -52t-32.5 -161q0 -128 39 -167q19 -19 37.5 -26z" />
    <glyph glyph-name="e" unicode="e" horiz-adv-x="504" 
d="M406 50l30 3l2 -49q-113 -14 -191 -14q-108 1 -151 64t-43 194q0 262 206 262q99 0 148 -56.5t49 -180.5l-2 -48h-340q0 -92 31.5 -136.5t108 -44.5t152.5 6zM114 275h282q0 99 -32.5 141t-104 42t-108.5 -43.5t-37 -139.5z" />
    <glyph glyph-name="f" unicode="f" horiz-adv-x="324" 
d="M155 447v-447h-60v447h-65v53h65v51q0 106 29 143.5t103 37.5l97 -5v-51q-59 2 -88 2q-47 0 -64 -26t-17 -102v-50h151v-53h-151z" />
    <glyph glyph-name="g" unicode="g" horiz-adv-x="509" 
d="M425.5 -199q-54.5 -38 -169.5 -38t-159 33t-44 121q0 42 18 67.5t63 58.5q-25 16 -25 68q0 16 24 63l8 15q-82 34 -82 151q0 170 181 170q51 0 90 -10l15 -3l145 3v-53l-100 2q36 -36 36 -118.5t-45.5 -120t-143.5 -37.5q-29 0 -51 4q-20 -49 -20 -62q0 -33 19.5 -40.5
t116.5 -8t137.5 -29t40.5 -113.5t-54.5 -123zM113 -79q0 -60 30 -83t116 -23t123 24.5t37 82t-27 74.5t-103 17l-113 4q-37 -26 -50 -45.5t-13 -50.5zM148 249.5q28 -26.5 94.5 -26.5t94.5 26t28 91.5t-28 92.5t-94.5 27t-94.5 -27.5t-28 -92t28 -91z" />
    <glyph glyph-name="h" unicode="h" horiz-adv-x="533" 
d="M134 0h-59v722h59v-251q84 39 162 39q100 0 133.5 -53t33.5 -194v-263h-60v260q0 115 -21.5 155.5t-93.5 40.5q-35 0 -73.5 -8.5t-59.5 -17.5l-21 -8v-422z" />
    <glyph glyph-name="i" unicode="i" horiz-adv-x="209" 
d="M75 0v500h59v-500h-59zM75 625v75h59v-75h-59z" />
    <glyph glyph-name="j" unicode="j" horiz-adv-x="209" 
d="M75 10v490h60v-491q0 -88 -32.5 -134t-131.5 -96l-24 48q81 46 104.5 78t23.5 105zM75 625v75h60v-75h-60z" />
    <glyph glyph-name="k" unicode="k" horiz-adv-x="470" 
d="M134 0h-59v722h59v-430l85 2l154 206h69l-171 -229l179 -271h-70l-160 241l-86 -2v-239z" />
    <glyph glyph-name="l" unicode="l" horiz-adv-x="221" 
d="M81 0v722h59v-722h-59z" />
    <glyph glyph-name="m" unicode="m" horiz-adv-x="835" 
d="M134 0h-59v500h59v-37q76 47 162 47t122 -53q36 22 87.5 37.5t92.5 15.5q100 0 133.5 -52.5t33.5 -194.5v-263h-59v260q0 115 -21.5 155.5t-93.5 40.5q-36 0 -74 -10.5t-58 -21.5l-20 -10q15 -38 15 -154v-260h-60v258q0 117 -21.5 157.5t-92.5 40.5q-35 0 -71.5 -10.5
t-55.5 -21.5l-19 -10v-414z" />
    <glyph glyph-name="n" unicode="n" horiz-adv-x="533" 
d="M134 0h-59v500h59v-37q84 47 163 47q100 0 133.5 -53t33.5 -194v-263h-60v260q0 115 -22 155.5t-94 40.5q-35 0 -73.5 -10.5t-59.5 -21.5l-21 -10v-414z" />
    <glyph glyph-name="o" unicode="o" horiz-adv-x="527" 
d="M101.5 451q47.5 59 162 59t162 -59t47.5 -200t-43.5 -201t-165.5 -60t-166 60t-44 201t47.5 200zM143.5 88.5q27.5 -45.5 120 -45.5t120.5 46t28 163.5t-31.5 161t-116.5 43.5t-116.5 -43t-31.5 -161.5t27.5 -164z" />
    <glyph glyph-name="p" unicode="p" horiz-adv-x="523" 
d="M75 -225v725h59v-38q78 48 164.5 48t129 -61t42.5 -198.5t-50 -199t-166 -61.5q-62 0 -120 13v-228h-59zM286 456q-33 0 -71 -11t-59 -23l-22 -11v-356q68 -12 118 -12q86 0 121 48.5t35 160t-30.5 158t-91.5 46.5z" />
    <glyph glyph-name="q" unicode="q" horiz-adv-x="521" 
d="M238 -10q-100 0 -142.5 60t-42.5 199t51.5 200t181.5 61l160 -10v-725h-59v250q-71 -35 -149 -35zM287 457q-101 0 -137 -49.5t-36 -158.5t29 -157t100 -48q34 0 70 8t55 16l19 9v374q-68 6 -100 6z" />
    <glyph glyph-name="r" unicode="r" horiz-adv-x="339" 
d="M75 0v500h59v-72q37 26 90.5 50t98.5 32v-60q-43 -9 -90 -27.5t-73 -32.5l-26 -15v-375h-59z" />
    <glyph glyph-name="s" unicode="s" horiz-adv-x="464" 
d="M226 455q-118 0 -118 -85q0 -39 26 -55t117.5 -31.5t129 -42.5t37.5 -103.5t-49 -112t-144 -35.5q-55 0 -142 14l-29 4l4 53q112 -17 172 -17t93.5 21t33.5 71t-27.5 66.5t-118 30.5t-127.5 40t-37 98t51 105t126 33q60 0 150 -13l27 -4l-2 -53q-107 16 -173 16z" />
    <glyph glyph-name="t" unicode="t" horiz-adv-x="347" 
d="M328 447h-167v-247q0 -97 14 -127t66 -30l92 7l4 -51q-66 -10 -101 -10q-76 0 -105.5 37.5t-29.5 143.5v277h-74v53h74v157h60v-157h167v-53z" />
    <glyph glyph-name="u" unicode="u" horiz-adv-x="525" 
d="M391 500h59v-500h-59v37q-77 -47 -154 -47q-102 0 -134.5 52t-32.5 197v261h59v-260q0 -116 21.5 -156t93.5 -40q35 0 72 10.5t56 21.5l19 10v414z" />
    <glyph glyph-name="v" unicode="v" horiz-adv-x="477" 
d="M27 500h66l125 -448h40l130 448h62l-146 -500h-131z" />
    <glyph glyph-name="w" unicode="w" horiz-adv-x="760" 
d="M33 500h61l110 -448h14l130 438h63l130 -438h15l110 448h61l-125 -500h-104l-118 412l-119 -412h-103z" />
    <glyph glyph-name="x" unicode="x" horiz-adv-x="446" 
d="M24 500h67l132 -206l132 206h67l-163 -249l162 -251h-66l-132 205l-132 -205h-67l161 250z" />
    <glyph glyph-name="y" unicode="y" horiz-adv-x="478" 
d="M27 500h61l133 -448h36l134 448h61l-216 -725h-60l67 225h-69z" />
    <glyph glyph-name="z" unicode="z" horiz-adv-x="455" 
d="M42 446v54h371v-54l-297 -392h297v-54h-371v54l297 392h-297z" />
    <glyph glyph-name="braceleft" unicode="{" horiz-adv-x="350" 
d="M183 574l7 -121q0 -64 -21.5 -93.5t-81.5 -47.5q60 -18 82 -48.5t22 -93.5l-7 -117q0 -62 26.5 -92.5t98.5 -34.5l-2 -53q-99 4 -140.5 45t-41.5 131l7 123q0 44 -24.5 71t-81.5 43v50q57 13 81.5 40t24.5 73l-7 128q0 91 42 131.5t141 44.5l1 -52q-72 -4 -99 -34.5
t-27 -92.5z" />
    <glyph glyph-name="bar" unicode="|" horiz-adv-x="221" 
d="M80 -225v947h60v-947h-60z" />
    <glyph glyph-name="braceright" unicode="}" horiz-adv-x="350" 
d="M166 53l-7 117q0 63 22 93.5t82 48.5q-60 18 -81.5 47.5t-21.5 93.5l7 121q0 62 -27 92.5t-99 34.5l1 52q99 -4 141 -44.5t42 -131.5l-7 -128q0 -46 24.5 -73t81.5 -40v-50q-57 -16 -81.5 -43t-24.5 -71l7 -123q0 -90 -41.5 -131t-140.5 -45l-2 53q72 4 98.5 34.5
t26.5 92.5z" />
    <glyph glyph-name="asciitilde" unicode="~" 
d="M382 201q-30 0 -105 33t-93 33q-34 0 -88 -37l-17 -12l-11 51q63 54 115 54q29 0 103.5 -33t93.5 -33q34 0 86 36l18 12l10 -50q-60 -54 -112 -54z" />
    <glyph glyph-name="uni00A0" unicode="&#xa0;" horiz-adv-x="220" 
 />
    <glyph glyph-name="exclamdown" unicode="&#xa1;" horiz-adv-x="219" 
d="M141 500v-100h-66v100h66zM137 277l3 -472h-63l4 472h56z" />
    <glyph glyph-name="cent" unicode="&#xa2;" 
d="M280 -83v121q-94 4 -135 49.5t-41 158t42.5 163t133.5 54.5v123h53v-125q39 0 90 -9l17 -3l-2 -50q-80 9 -133 9q-76 0 -106.5 -36.5t-30.5 -124.5t30 -121t115 -33l126 7l3 -51q-66 -8 -108 -10v-122h-54z" />
    <glyph glyph-name="sterling" unicode="&#xa3;" 
d="M440 604q-82 11 -129 11t-65 -30.5t-18 -122.5v-49h174v-53h-174v-306h161l79 16l10 -52l-81 -18h-316v54h87v306h-67v53h67v53q0 121 32 162t113 41q47 0 107 -11l21 -4z" />
    <glyph glyph-name="currency" unicode="&#xa4;" 
d="M382 107q-46 -32 -102.5 -32t-102.5 32l-69 -70l-43 43l70 69q-32 46 -32 102.5t32 102.5l-70 70l43 43l69 -71q48 33 102.5 33t102.5 -33l70 71l43 -43l-71 -70q33 -48 33 -102.5t-33 -102.5l71 -69l-43 -43zM280 130q50 0 86 36t36 86t-36 86t-86 36t-86 -36t-36 -86
t36 -86t86 -36z" />
    <glyph glyph-name="yen" unicode="&#xa5;" 
d="M57 321v53h151l-181 286h69l185 -285l182 285h70l-179 -286h148v-53h-180l-10 -20v-78h191v-53h-191v-170h-62v170h-192v53h192v78l-9 20h-184z" />
    <glyph glyph-name="brokenbar" unicode="&#xa6;" horiz-adv-x="225" 
d="M82 722h60v-375h-60v375zM82 152h60v-377h-60v377z" />
    <glyph glyph-name="section" unicode="&#xa7;" horiz-adv-x="494" 
d="M68 501q0 153 186 153q50 0 135 -12l26 -3l-3 -51q-108 13 -165 13q-120 0 -120 -98q0 -55 31 -75t116 -35t122.5 -43.5t37.5 -98.5q0 -38 -15 -76t-26 -54q36 -28 36 -97q0 -164 -184 -164q-56 0 -143 12l-29 4l5 51q110 -15 165 -15q128 0 128 109q0 50 -30 66.5
t-117.5 31t-127.5 45.5t-40 101q0 40 21.5 77t34.5 47q-44 33 -44 112zM153 367q-37 -55 -37 -98.5t28.5 -64.5t99 -32.5t103.5 -26.5q8 8 17.5 42.5t9.5 56.5q0 49 -28 68t-97.5 31.5t-95.5 23.5z" />
    <glyph glyph-name="dieresis" unicode="&#xa8;" horiz-adv-x="228" 
d="M-8 627v80h59v-80h-59zM189 627v80h58v-80h-58z" />
    <glyph glyph-name="copyright" unicode="&#xa9;" horiz-adv-x="646" 
d="M136.5 242.5q-74.5 78.5 -74.5 192t74.5 191.5t187 78t186 -78.5t73.5 -192.5t-73.5 -191.5t-186 -77.5t-187 78.5zM102 434q0 -96 63 -163.5t157.5 -67.5t158 67t63.5 163.5t-63.5 164t-158 67.5t-157.5 -67.5t-63 -163.5zM325 278q-63 0 -88.5 38t-25.5 117.5t25 118
t90 38.5q39 0 65 -6l10 -3l-2 -46q-40 7 -76.5 7t-49 -25t-12.5 -82t14 -83t52 -26l72 7l2 -45q-39 -10 -76 -10z" />
    <glyph glyph-name="ordfeminine" unicode="&#xaa;" horiz-adv-x="378" 
d="M290 564v-136q9 -13 32 -19l-2 -41q-48 0 -72 24q-58 -24 -103 -24t-66.5 23.5t-21.5 63.5q0 77 88 83l93 6v22q0 26 -12 36.5t-38 10.5l-111 -7l-2 40q69 13 117.5 13t73 -21.5t24.5 -73.5zM154 499q-44 -3 -44 -44.5t38 -41.5q34 0 76 13l14 5v73z" />
    <glyph glyph-name="guillemotleft" unicode="&#xab;" horiz-adv-x="523" 
d="M227 350l-129 -99l129 -109v-64l-181 146v51l181 138v-63zM453 350l-129 -99l129 -109v-64l-181 146v51l181 138v-63z" />
    <glyph glyph-name="logicalnot" unicode="&#xac;" 
d="M67 338h426v-218h-57v163h-369v55z" />
    <glyph glyph-name="registered" unicode="&#xae;" horiz-adv-x="646" 
d="M136.5 242.5q-74.5 78.5 -74.5 192t74 191.5t186.5 78t186.5 -78.5t74 -192.5t-73.5 -191.5t-186 -77.5t-187 78.5zM102 434q0 -96 63 -163.5t157.5 -67.5t158 67t63.5 163.5t-63.5 164t-158 67.5t-157.5 -67.5t-63 -163.5zM264 394v-111h-48v300h104q57 0 85 -21t28 -72
q0 -71 -54 -90l59 -117h-51l-57 111h-66zM264 542v-107h67q29 0 42 12.5t13 41.5t-17 41t-52 12h-53z" />
    <glyph glyph-name="macron" unicode="&#xaf;" horiz-adv-x="228" 
d="M-16 631v49h272v-49h-272z" />
    <glyph glyph-name="degree" unicode="&#xb0;" 
d="M140 565q0 62 39 101t101 39t100.5 -39t38.5 -101t-38.5 -100t-100.5 -38t-101 38t-39 100zM185 565q0 -44 26 -70t69.5 -26t70 26.5t26.5 69.5t-26.5 70t-70 27t-69.5 -26.5t-26 -70.5z" />
    <glyph glyph-name="plusminus" unicode="&#xb1;" 
d="M57 298v56h193v130h57v-130h196v-56h-196v-133h-57v133h-193zM57 98h446v-56h-446v56z" />
    <glyph glyph-name="twosuperior" unicode="&#xb2;" horiz-adv-x="280" 
d="M235 478h-203v46l92 95q27 27 39.5 46t12.5 42q0 43 -52 43l-87 -9l-2 46q56 12 99 12q96 0 96 -88q0 -34 -14 -58t-48 -57l-69 -70h136v-48z" />
    <glyph glyph-name="threesuperior" unicode="&#xb3;" horiz-adv-x="280" 
d="M37 789q56 10 104 10t72.5 -19.5t24.5 -62.5q0 -23 -10 -41q-14 -25 -32 -33q26 -8 38 -25t12 -54q0 -96 -103 -96q-37 0 -93 8l-17 3l3 46q56 -8 106 -8t50 48q0 50 -51 50h-65v46h64q16 0 30 15t14 36q0 39 -51 39q-39 0 -79 -6l-14 -2z" />
    <glyph glyph-name="acute" unicode="&#xb4;" horiz-adv-x="268" 
d="M31 640l207 97l22 -52l-210 -87z" />
    <glyph glyph-name="mu" unicode="&#xb5;" 
d="M410 500h59v-500h-59v37q-77 -47 -151 -47t-111 25v-240h-59v725h59v-260q0 -116 21.5 -156t93.5 -40q35 0 72 10.5t56 21.5l19 10v414z" />
    <glyph glyph-name="paragraph" unicode="&#xb6;" horiz-adv-x="591" 
d="M415 0v642h-130v-642h-55v334h-7q-80 0 -133 50t-53 129.5t53 130.5t133 51h329v-53h-82v-642h-55z" />
    <glyph glyph-name="periodcentered" unicode="&#xb7;" horiz-adv-x="207" 
d="M71 244v101h66v-101h-66z" />
    <glyph glyph-name="cedilla" unicode="&#xb8;" horiz-adv-x="263" 
d="M218 -127q0 -84 -89 -84l-84 6l2 40q41 -3 71 -3q45 0 45 41q0 37 -45 37h-47v91h38v-53q58 0 83.5 -15.5t25.5 -59.5z" />
    <glyph glyph-name="onesuperior" unicode="&#xb9;" horiz-adv-x="280" 
d="M188 790v-312h-53v253l-73 -50l-25 40l101 69h50z" />
    <glyph glyph-name="ordmasculine" unicode="&#xba;" horiz-adv-x="370" 
d="M185 659q64 0 95.5 -35t31.5 -109q0 -147 -127 -147q-129 0 -129 145.5t129 145.5zM185 418q39 0 55.5 22.5t16.5 74t-16 73t-55.5 21.5t-56.5 -21.5t-17 -73t17 -74t56 -22.5z" />
    <glyph glyph-name="guillemotright" unicode="&#xbb;" horiz-adv-x="523" 
d="M424 251l-128 99v63l181 -138v-51l-181 -146v64zM198 251l-128 99v63l181 -138v-51l-181 -146v64z" />
    <glyph glyph-name="onequarter" unicode="&#xbc;" horiz-adv-x="531" 
d="M192 790v-312h-53v253l-73 -50l-25 40l101 69h50zM36 28l392 631l36 -23l-392 -630zM412 -100v51h-142v46l76 215h58l-78 -212h86l4 88h49v-88h31v-49h-31v-51h-53z" />
    <glyph glyph-name="onehalf" unicode="&#xbd;" horiz-adv-x="525" 
d="M197 790v-312h-53v253l-73 -50l-25 40l101 69h50zM34 28l392 631l36 -23l-392 -630zM479 -100h-203v46l92 95q27 27 39.5 46t12.5 42q0 43 -52 43l-87 -9l-2 46q56 12 99 12q96 0 96 -88q0 -34 -14 -58t-48 -57l-69 -70h136v-48z" />
    <glyph glyph-name="threequarters" unicode="&#xbe;" horiz-adv-x="547" 
d="M57 789q56 10 104 10t72.5 -19.5t24.5 -62.5q0 -23 -10 -41q-14 -25 -32 -33q26 -8 38 -25t12 -54q0 -96 -103 -96q-37 0 -93 8l-17 3l3 46q56 -8 106 -8t50 48q0 50 -51 50h-65v46h64q16 0 30 15t14 36q0 39 -51 39q-39 0 -79 -6l-14 -2zM54 28l392 631l36 -23
l-392 -630zM430 -100v51h-142v46l76 215h58l-78 -212h86l4 88h49v-88h31v-49h-31v-51h-53z" />
    <glyph glyph-name="questiondown" unicode="&#xbf;" horiz-adv-x="443" 
d="M40 -44q0 63 18 96.5t72 79.5t76 74t22 62v36h52q9 -25 9 -57.5t-24.5 -64.5t-77 -77.5t-69.5 -72.5t-17 -79t35 -77t110 -25q41 0 128 19l28 6l6 -51q-106 -29 -167 -29q-101 0 -151 37.5t-50 122.5zM288 500v-100h-66v100h66z" />
    <glyph glyph-name="Agrave" unicode="&#xc0;" horiz-adv-x="594" 
d="M25 0l200 695h145l199 -695h-61l-56 192h-310l-55 -192h-62zM270 641l-113 -394h280l-113 394h-54zM190 928l207 -99l-20 -43l-209 88z" />
    <glyph glyph-name="Aacute" unicode="&#xc1;" horiz-adv-x="594" 
d="M25 0l200 695h145l199 -695h-61l-56 192h-310l-55 -192h-62zM270 641l-113 -394h280l-113 394h-54zM192 829l207 99l22 -54l-209 -88z" />
    <glyph glyph-name="Acircumflex" unicode="&#xc2;" horiz-adv-x="594" 
d="M25 0l200 695h145l199 -695h-61l-56 192h-310l-55 -192h-62zM270 641l-113 -394h280l-113 394h-54zM136 798l134 131h52l134 -131h-69l-90 86l-91 -86h-70z" />
    <glyph glyph-name="Atilde" unicode="&#xc3;" horiz-adv-x="594" 
d="M25 0l200 695h145l199 -695h-61l-56 192h-310l-55 -192h-62zM270 641l-113 -394h280l-113 394h-54zM373 814q-20 0 -81.5 28.5t-73.5 28.5q-23 0 -60 -37l-13 -13l-15 46q47 56 85 56q26 0 86.5 -27.5t72.5 -27.5q19 0 55 34l12 12l15 -45q-46 -55 -83 -55z" />
    <glyph glyph-name="Adieresis" unicode="&#xc4;" horiz-adv-x="594" 
d="M25 0l200 695h145l199 -695h-61l-56 192h-310l-55 -192h-62zM270 641l-113 -394h280l-113 394h-54zM167 819v80h59v-80h-59zM368 819v80h58v-80h-58z" />
    <glyph glyph-name="Aring" unicode="&#xc5;" horiz-adv-x="594" 
d="M374.5 823q30.5 -27 30.5 -73.5t-30 -73.5l194 -676h-61l-56 192h-310l-55 -192h-62l193 673q-33 27 -33 75t30.5 75t79.5 27t79.5 -27zM270 641l-113 -394h280l-113 394h-54zM232 750q0 -47 44 -55h38q44 8 44 55q0 27 -16.5 41.5t-46.5 14.5t-46.5 -14.5t-16.5 -41.5z
" />
    <glyph glyph-name="AE" unicode="&#xc6;" horiz-adv-x="877" 
d="M412 0v190h-260l-66 -190h-64l234 697h572v-58h-355v-252h295v-58h-295v-271h355v-58h-416zM412 249v390h-111l-132 -390h243z" />
    <glyph glyph-name="Ccedilla" unicode="&#xc7;" horiz-adv-x="544" 
d="M432 -127q0 -84 -89 -84l-84 6l2 40q41 -3 71 -3q45 0 45 41q0 37 -45 37h-47v81q-133 8 -180 102q-24 48 -33.5 107t-9.5 138.5t6 132t22 99t44 74.5q59 61 180 61q83 0 188 -21l-3 -54q-104 19 -167 19t-97.5 -13.5t-56 -36t-32.5 -62.5q-20 -68 -20 -170t7 -152.5
t27 -91.5t59 -59t108 -18t172 19l3 -54q-92 -20 -179 -21v-42q58 0 83.5 -15.5t25.5 -59.5z" />
    <glyph glyph-name="Egrave" unicode="&#xc8;" horiz-adv-x="552" 
d="M87 0v695h417v-56h-355v-258h295v-55h-295v-271h355v-55h-417zM199 928l207 -99l-20 -43l-209 88z" />
    <glyph glyph-name="Eacute" unicode="&#xc9;" horiz-adv-x="552" 
d="M87 0v695h417v-56h-355v-258h295v-55h-295v-271h355v-55h-417zM182 829l207 99l22 -54l-209 -88z" />
    <glyph glyph-name="Ecircumflex" unicode="&#xca;" horiz-adv-x="552" 
d="M87 0v695h417v-56h-355v-258h295v-55h-295v-271h355v-55h-417zM132 798l134 131h52l134 -131h-69l-90 86l-91 -86h-70z" />
    <glyph glyph-name="Edieresis" unicode="&#xcb;" horiz-adv-x="552" 
d="M87 0v695h417v-56h-355v-258h295v-55h-295v-271h355v-55h-417zM165 819v80h59v-80h-59zM366 819v80h58v-80h-58z" />
    <glyph glyph-name="Igrave" unicode="&#xcc;" horiz-adv-x="236" 
d="M87 0v695h62v-695h-62zM3 928l207 -99l-20 -43l-209 88z" />
    <glyph glyph-name="Iacute" unicode="&#xcd;" horiz-adv-x="236" 
d="M87 0v695h62v-695h-62zM14 829l207 99l22 -54l-209 -88z" />
    <glyph glyph-name="Icircumflex" unicode="&#xce;" horiz-adv-x="236" 
d="M87 0v695h62v-695h-62zM-47 798l134 131h52l134 -131h-69l-90 86l-91 -86h-70z" />
    <glyph glyph-name="Idieresis" unicode="&#xcf;" horiz-adv-x="236" 
d="M87 0v695h62v-695h-62zM-12 819v80h59v-80h-59zM189 819v80h58v-80h-58z" />
    <glyph glyph-name="Eth" unicode="&#xd0;" horiz-adv-x="649" 
d="M19 320v58h71v319h252q248 0 248 -338q0 -359 -248 -359h-252v320h-71zM526 359q0 280 -184 280h-191v-261h165v-58h-165v-262h191q52 0 89.5 25.5t57.5 70.5q37 83 37 205z" />
    <glyph glyph-name="Ntilde" unicode="&#xd1;" horiz-adv-x="672" 
d="M87 0v695h122l291 -640h23v640h61v-695h-120l-293 639h-22v-639h-62zM414 814q-20 0 -81.5 28.5t-74.5 28.5q-22 0 -60 -37l-12 -13l-15 46q47 56 85 56q26 0 87 -27.5t72 -27.5q19 0 55 34l12 12l15 -45q-46 -55 -83 -55z" />
    <glyph glyph-name="Ograve" unicode="&#xd2;" horiz-adv-x="662" 
d="M166 115.5q42 -69.5 165.5 -69.5t165.5 68t42 227.5t-44 233.5t-164 74q-124 0 -167 -80q-23 -41 -31.5 -94t-8.5 -131q0 -159 42 -228.5zM544.5 73q-58.5 -83 -213 -83t-213 85t-58.5 268.5t59 272.5t212 89t212.5 -88.5t59.5 -274.5t-58.5 -269zM232 928l207 -99
l-20 -43l-209 88z" />
    <glyph glyph-name="Oacute" unicode="&#xd3;" horiz-adv-x="662" 
d="M166 115.5q42 -69.5 165.5 -69.5t165.5 68t42 227.5t-44 233.5t-164 74q-124 0 -167 -80q-23 -41 -31.5 -94t-8.5 -131q0 -159 42 -228.5zM544.5 73q-58.5 -83 -213 -83t-213 85t-58.5 268.5t59 272.5t212 89t212.5 -88.5t59.5 -274.5t-58.5 -269zM206 829l207 99l22 -54
l-209 -88z" />
    <glyph glyph-name="Ocircumflex" unicode="&#xd4;" horiz-adv-x="662" 
d="M166 115.5q42 -69.5 165.5 -69.5t165.5 68t42 227.5t-44 233.5t-164 74q-124 0 -167 -80q-23 -41 -31.5 -94t-8.5 -131q0 -159 42 -228.5zM544.5 73q-58.5 -83 -213 -83t-213 85t-58.5 268.5t59 272.5t212 89t212.5 -88.5t59.5 -274.5t-58.5 -269zM171 798l134 131h52
l134 -131h-69l-90 86l-91 -86h-70z" />
    <glyph glyph-name="Otilde" unicode="&#xd5;" horiz-adv-x="662" 
d="M166 115.5q42 -69.5 165.5 -69.5t165.5 68t42 227.5t-44 233.5t-164 74q-124 0 -167 -80q-23 -41 -31.5 -94t-8.5 -131q0 -159 42 -228.5zM544.5 73q-58.5 -83 -213 -83t-213 85t-58.5 268.5t59 272.5t212 89t212.5 -88.5t59.5 -274.5t-58.5 -269zM408 814
q-20 0 -81.5 28.5t-74.5 28.5q-22 0 -60 -37l-12 -13l-15 46q47 56 85 56q26 0 87 -27.5t72 -27.5q19 0 55 34l12 12l15 -45q-46 -55 -83 -55z" />
    <glyph glyph-name="Odieresis" unicode="&#xd6;" horiz-adv-x="662" 
d="M166 115.5q42 -69.5 165.5 -69.5t165.5 68t42 227.5t-44 233.5t-164 74q-124 0 -167 -80q-23 -41 -31.5 -94t-8.5 -131q0 -159 42 -228.5zM544.5 73q-58.5 -83 -213 -83t-213 85t-58.5 268.5t59 272.5t212 89t212.5 -88.5t59.5 -274.5t-58.5 -269zM202 819v80h59v-80h-59
zM403 819v80h58v-80h-58z" />
    <glyph glyph-name="multiply" unicode="&#xd7;" 
d="M114 456l166 -168l166 168l39 -39l-168 -166l168 -166l-39 -40l-166 168l-166 -167l-39 39l167 166l-167 165z" />
    <glyph glyph-name="Oslash" unicode="&#xd8;" horiz-adv-x="662" 
d="M331 -10q-71 0 -125 19l-57 -123l-47 21l59 126q-55 40 -78 115.5t-23 195.5q0 183 59 272t212 89q79 0 133 -24l54 115l47 -19l-58 -123q96 -77 96 -310q0 -188 -58.5 -271t-213.5 -83zM132.5 475q-8.5 -53 -8.5 -141t13.5 -149t49.5 -95l252 537q-44 22 -107.5 22
t-104.5 -19.5t-63.5 -60.5t-31 -94zM331 46q124 0 166 68t42 241t-59 240l-249 -533q39 -16 100 -16z" />
    <glyph glyph-name="Ugrave" unicode="&#xd9;" horiz-adv-x="642" 
d="M144 204q0 -158 173 -158q90 0 135 37t45 121v491h62v-491q0 -113 -61 -163.5t-178.5 -50.5t-177 50.5t-59.5 163.5v491h61v-491zM223 928l207 -99l-20 -43l-209 88z" />
    <glyph glyph-name="Uacute" unicode="&#xda;" horiz-adv-x="642" 
d="M144 204q0 -158 173 -158q90 0 135 37t45 121v491h62v-491q0 -113 -61 -163.5t-178.5 -50.5t-177 50.5t-59.5 163.5v491h61v-491zM205 829l207 99l22 -54l-209 -88z" />
    <glyph glyph-name="Ucircumflex" unicode="&#xdb;" horiz-adv-x="642" 
d="M144 204q0 -158 173 -158q90 0 135 37t45 121v491h62v-491q0 -113 -61 -163.5t-178.5 -50.5t-177 50.5t-59.5 163.5v491h61v-491zM160 798l134 131h52l134 -131h-69l-90 86l-91 -86h-70z" />
    <glyph glyph-name="Udieresis" unicode="&#xdc;" horiz-adv-x="642" 
d="M144 204q0 -158 173 -158q90 0 135 37t45 121v491h62v-491q0 -113 -61 -163.5t-178.5 -50.5t-177 50.5t-59.5 163.5v491h61v-491zM191 819v80h59v-80h-59zM392 819v80h58v-80h-58z" />
    <glyph glyph-name="Yacute" unicode="&#xdd;" horiz-adv-x="534" 
d="M298 0h-62v294l-223 401h69l185 -337l184 337h70l-223 -401v-294zM175 829l207 99l22 -54l-209 -88z" />
    <glyph glyph-name="Thorn" unicode="&#xde;" horiz-adv-x="600" 
d="M341 185q153 0 153 178q0 83 -36.5 121.5t-116.5 38.5h-192v-338h192zM341 126h-192v-126h-62v697h62v-116h192q111 0 163.5 -53t52.5 -166t-53.5 -174.5t-162.5 -61.5z" />
    <glyph glyph-name="germandbls" unicode="&#xdf;" horiz-adv-x="564" 
d="M134 0h-59v551q0 101 43 141t143 40t142.5 -33t42.5 -108q0 -52 -18 -81.5t-57.5 -47t-51 -27t-11.5 -24.5t16.5 -28t81 -45.5t92.5 -65t28 -92.5q0 -102 -45.5 -146t-154.5 -44q-47 0 -104 10l-21 3l3 52q82 -10 118 -10q79 0 110 30.5t31 86t-22 79.5t-87.5 56.5
t-86.5 54t-21 55.5t18 52.5t56 35.5t50.5 37t12.5 62.5t-26.5 62.5t-96 20t-98 -28t-28.5 -108v-541z" />
    <glyph glyph-name="agrave" unicode="&#xe0;" horiz-adv-x="499" 
d="M419 351v-268q4 -37 65 -44l-3 -48q-77 0 -113 40q-94 -41 -188 -41q-67 0 -102 38.5t-35 110t35.5 106t111.5 42.5l170 17v47q0 56 -24.5 80.5t-65.5 24.5q-64 0 -166 -12l-31 -3l-3 48q110 21 192.5 21t119.5 -39t37 -120zM105 142q0 -101 83 -101q36 0 79 8.5t68 17.5
l25 9v181l-163 -17q-49 -4 -70.5 -28t-21.5 -70zM147 737l207 -97l-19 -42l-210 87z" />
    <glyph glyph-name="aacute" unicode="&#xe1;" horiz-adv-x="499" 
d="M419 351v-268q4 -37 65 -44l-3 -48q-77 0 -113 40q-94 -41 -188 -41q-67 0 -102 38.5t-35 110t35.5 106t111.5 42.5l170 17v47q0 56 -24.5 80.5t-65.5 24.5q-64 0 -166 -12l-31 -3l-3 48q110 21 192.5 21t119.5 -39t37 -120zM105 142q0 -101 83 -101q36 0 79 8.5t68 17.5
l25 9v181l-163 -17q-49 -4 -70.5 -28t-21.5 -70zM123 640l207 97l22 -52l-210 -87z" />
    <glyph glyph-name="acircumflex" unicode="&#xe2;" horiz-adv-x="499" 
d="M419 351v-268q4 -37 65 -44l-3 -48q-77 0 -113 40q-94 -41 -188 -41q-67 0 -102 38.5t-35 110t35.5 106t111.5 42.5l170 17v47q0 56 -24.5 80.5t-65.5 24.5q-64 0 -166 -12l-31 -3l-3 48q110 21 192.5 21t119.5 -39t37 -120zM105 142q0 -101 83 -101q36 0 79 8.5t68 17.5
l25 9v181l-163 -17q-49 -4 -70.5 -28t-21.5 -70zM98 595l122 137h42l123 -137h-63l-80 92l-81 -92h-63z" />
    <glyph glyph-name="atilde" unicode="&#xe3;" horiz-adv-x="499" 
d="M419 351v-268q4 -37 65 -44l-3 -48q-77 0 -113 40q-94 -41 -188 -41q-67 0 -102 38.5t-35 110t35.5 106t111.5 42.5l170 17v47q0 56 -24.5 80.5t-65.5 24.5q-64 0 -166 -12l-31 -3l-3 48q110 21 192.5 21t119.5 -39t37 -120zM105 142q0 -101 83 -101q36 0 79 8.5t68 17.5
l25 9v181l-163 -17q-49 -4 -70.5 -28t-21.5 -70zM311 619q-21 0 -74 24.5t-65 24.5q-24 0 -62 -30l-13 -11l-15 40q50 50 88 50q21 0 74.5 -24t65.5 -24q21 0 56 29l12 10l14 -42q-45 -47 -81 -47z" />
    <glyph glyph-name="adieresis" unicode="&#xe4;" horiz-adv-x="499" 
d="M419 351v-268q4 -37 65 -44l-3 -48q-77 0 -113 40q-94 -41 -188 -41q-67 0 -102 38.5t-35 110t35.5 106t111.5 42.5l170 17v47q0 56 -24.5 80.5t-65.5 24.5q-64 0 -166 -12l-31 -3l-3 48q110 21 192.5 21t119.5 -39t37 -120zM105 142q0 -101 83 -101q36 0 79 8.5t68 17.5
l25 9v181l-163 -17q-49 -4 -70.5 -28t-21.5 -70zM115 627v80h59v-80h-59zM312 627v80h58v-80h-58z" />
    <glyph glyph-name="aring" unicode="&#xe5;" horiz-adv-x="499" 
d="M419 351v-268q4 -37 65 -44l-3 -48q-77 0 -113 40q-94 -41 -188 -41q-67 0 -102 38.5t-35 110t35.5 106t111.5 42.5l170 17v47q0 56 -24.5 80.5t-65.5 24.5q-64 0 -166 -12l-31 -3l-3 48q110 21 192.5 21t119.5 -39t37 -120zM105 142q0 -101 83 -101q36 0 79 8.5t68 17.5
l25 9v181l-163 -17q-49 -4 -70.5 -28t-21.5 -70zM181 575q-29 29 -29 71.5t29 71.5t71.5 29t71.5 -29t29 -71.5t-29 -71.5t-71.5 -29t-71.5 29zM211.5 688q-16.5 -17 -16.5 -41.5t16.5 -42t41 -17.5t41 17.5t16.5 42t-16.5 41.5t-41 17t-41 -17z" />
    <glyph glyph-name="ae" unicode="&#xe6;" horiz-adv-x="809" 
d="M559 45q49 0 153 7l29 2l2 -50q-112 -14 -190 -14q-99 0 -146 56l-34 -15q-92 -41 -197 -41q-133 0 -133 151q0 80 40.5 109.5t141.5 40.5l135 13v45q0 103 -96 103q-66 0 -159 -8l-31 -2l-2 54q116 13 194 13q108 0 136 -81q49 81 163 81q99 0 148 -56.5t49 -179.5
l-3 -48h-340q1 -92 32.5 -136t107.5 -44zM183 43q89 0 198 42q-23 55 -23 169l-161 -15q-48 -5 -70 -27.5t-22 -70t20.5 -73t57.5 -25.5zM419 275h282q0 97 -32.5 139t-103.5 42q-146 0 -146 -181z" />
    <glyph glyph-name="ccedilla" unicode="&#xe7;" horiz-adv-x="433" 
d="M355 -127q0 -84 -89 -84l-84 6l2 40q41 -3 71 -3q45 0 45 41q0 37 -45 37h-47v83q-88 11 -121 71.5t-33 196t47.5 192.5t159.5 57q45 0 107 -10l23 -3l-3 -51q-79 10 -117 10q-89 0 -122 -43.5t-33 -160t30 -162.5t125 -46l119 9l2 -51q-89 -12 -132 -12h-14v-42
q58 0 83.5 -15.5t25.5 -59.5z" />
    <glyph glyph-name="egrave" unicode="&#xe8;" horiz-adv-x="504" 
d="M406 50l30 3l2 -49q-113 -14 -191 -14q-108 1 -151 64t-43 194q0 262 206 262q99 0 148 -56.5t49 -180.5l-2 -48h-340q0 -92 31.5 -136.5t108 -44.5t152.5 6zM114 275h282q0 99 -32.5 141t-104 42t-108.5 -43.5t-37 -139.5zM145 738l207 -97l-19 -42l-210 87z" />
    <glyph glyph-name="eacute" unicode="&#xe9;" horiz-adv-x="504" 
d="M406 50l30 3l2 -49q-113 -14 -191 -14q-108 1 -151 64t-43 194q0 262 206 262q99 0 148 -56.5t49 -180.5l-2 -48h-340q0 -92 31.5 -136.5t108 -44.5t152.5 6zM114 275h282q0 99 -32.5 141t-104 42t-108.5 -43.5t-37 -139.5zM154 640l207 97l22 -52l-210 -87z" />
    <glyph glyph-name="ecircumflex" unicode="&#xea;" horiz-adv-x="504" 
d="M406 50l30 3l2 -49q-113 -14 -191 -14q-108 1 -151 64t-43 194q0 262 206 262q99 0 148 -56.5t49 -180.5l-2 -48h-340q0 -92 31.5 -136.5t108 -44.5t152.5 6zM114 275h282q0 99 -32.5 141t-104 42t-108.5 -43.5t-37 -139.5zM118 595l122 137h42l123 -137h-63l-80 92
l-81 -92h-63z" />
    <glyph glyph-name="edieresis" unicode="&#xeb;" horiz-adv-x="504" 
d="M406 50l30 3l2 -49q-113 -14 -191 -14q-108 1 -151 64t-43 194q0 262 206 262q99 0 148 -56.5t49 -180.5l-2 -48h-340q0 -92 31.5 -136.5t108 -44.5t152.5 6zM114 275h282q0 99 -32.5 141t-104 42t-108.5 -43.5t-37 -139.5zM128 627v80h59v-80h-59zM325 627v80h58v-80
h-58z" />
    <glyph glyph-name="igrave" unicode="&#xec;" horiz-adv-x="209" 
d="M75 0v500h59v-500h-59zM-38 737l207 -97l-19 -42l-210 87z" />
    <glyph glyph-name="iacute" unicode="&#xed;" horiz-adv-x="209" 
d="M40 640l207 97l22 -52l-210 -87zM75 500h59v-500h-59v500z" />
    <glyph glyph-name="icircumflex" unicode="&#xee;" horiz-adv-x="209" 
d="M75 500h59v-500h-59v500zM-40 595l122 137h42l123 -137h-63l-80 92l-81 -92h-63z" />
    <glyph glyph-name="idieresis" unicode="&#xef;" horiz-adv-x="209" 
d="M75 500h59v-500h-59v500zM-27 627v80h59v-80h-59zM170 627v80h58v-80h-58z" />
    <glyph glyph-name="eth" unicode="&#xf0;" horiz-adv-x="543" 
d="M326 648q162 -101 162 -296.5t-52 -278t-173 -82.5q-104 0 -162 57.5t-58 160t55 161t153 58.5q63 0 147 -30l27 -9q-7 141 -149 225l-120 -80l-29 39l100 67q-57 26 -128 45l14 47q95 -22 165 -57l102 68l29 -39zM426 334q-100 39 -170.5 39t-110 -44.5t-39.5 -120
t40 -119t122.5 -43.5t119.5 63t38 225z" />
    <glyph glyph-name="ntilde" unicode="&#xf1;" horiz-adv-x="533" 
d="M75 0v500h59v-37l23 11q23 12 64 24t76 12q100 0 133.5 -53t33.5 -194v-263h-60v260q0 115 -22 155.5t-97 40.5t-151 -42v-414h-59zM350 619q-21 0 -74 24.5t-66 24.5q-23 0 -61 -30l-13 -11l-15 40q50 50 88 50q21 0 74.5 -24t64.5 -24q22 0 57 29l12 10l14 -42
q-45 -47 -81 -47z" />
    <glyph glyph-name="ograve" unicode="&#xf2;" horiz-adv-x="527" 
d="M101.5 451q47.5 59 162 59t162 -59t47.5 -200t-43.5 -201t-165.5 -60t-166 60t-44 201t47.5 200zM143.5 88.5q27.5 -45.5 120 -45.5t120.5 46t28 163.5t-31.5 161t-116.5 43.5t-116.5 -43t-31.5 -161.5t27.5 -164zM168 737l207 -97l-19 -42l-210 87z" />
    <glyph glyph-name="oacute" unicode="&#xf3;" horiz-adv-x="527" 
d="M425.5 451q47.5 -59 47.5 -200t-43.5 -201t-165.5 -60t-166 60t-44 201t47.5 200t162 59t162 -59zM384 89q28 46 28 163.5t-31.5 161t-116.5 43.5t-116.5 -43t-31.5 -161.5t27.5 -164t120 -45.5t120.5 46zM163 640l207 97l22 -52l-210 -87z" />
    <glyph glyph-name="ocircumflex" unicode="&#xf4;" horiz-adv-x="527" 
d="M425.5 451q47.5 -59 47.5 -200t-43.5 -201t-165.5 -60t-166 60t-44 201t47.5 200t162 59t162 -59zM384 89q28 46 28 163.5t-31.5 161t-116.5 43.5t-116.5 -43t-31.5 -161.5t27.5 -164t120 -45.5t120.5 46zM119 595l122 137h42l123 -137h-63l-80 92l-81 -92h-63z" />
    <glyph glyph-name="otilde" unicode="&#xf5;" horiz-adv-x="527" 
d="M425.5 451q47.5 -59 47.5 -200t-43.5 -201t-165.5 -60t-166 60t-44 201t47.5 200t162 59t162 -59zM384 89q28 46 28 163.5t-31.5 161t-116.5 43.5t-116.5 -43t-31.5 -161.5t27.5 -164t120 -45.5t120.5 46zM337 619q-21 0 -74 24.5t-65 24.5q-24 0 -62 -30l-13 -11l-15 40
q50 50 88 50q21 0 74.5 -24t65.5 -24q21 0 56 29l12 10l14 -42q-45 -47 -81 -47z" />
    <glyph glyph-name="odieresis" unicode="&#xf6;" horiz-adv-x="527" 
d="M425.5 451q47.5 -59 47.5 -200t-43.5 -201t-165.5 -60t-166 60t-44 201t47.5 200t162 59t162 -59zM384 89q28 46 28 163.5t-31.5 161t-116.5 43.5t-116.5 -43t-31.5 -161.5t27.5 -164t120 -45.5t120.5 46zM132 627v80h59v-80h-59zM329 627v80h58v-80h-58z" />
    <glyph glyph-name="divide" unicode="&#xf7;" 
d="M97 263v59h366v-59h-366zM208 335v90h144v-90h-144zM249 33v93h61v-93h-61z" />
    <glyph glyph-name="oslash" unicode="&#xf8;" horiz-adv-x="527" 
d="M264 510q45 0 78 -9l43 104l43 -15l-44 -105q89 -49 89 -228q0 -147 -43.5 -207t-165.5 -60q-44 0 -79 8l-45 -111l-42 15l44 111q-49 25 -68.5 83t-19.5 161q0 135 47.5 194t162.5 59zM264 457q-85 0 -116.5 -43t-31.5 -141.5t10 -143t40 -64.5l156 385q-22 7 -58 7z
M264 43q92 0 120 46t28 175.5t-50 167.5l-157 -383q24 -6 59 -6z" />
    <glyph glyph-name="ugrave" unicode="&#xf9;" horiz-adv-x="525" 
d="M391 500h59v-500h-59v37q-77 -47 -154 -47q-102 0 -134.5 52t-32.5 197v261h59v-260q0 -116 21.5 -156t93.5 -40q35 0 72 10.5t56 21.5l19 10v414zM140 737l207 -97l-19 -42l-210 87z" />
    <glyph glyph-name="uacute" unicode="&#xfa;" horiz-adv-x="525" 
d="M450 500v-500h-59v37l-21 -11q-22 -12 -60.5 -24t-72.5 -12q-102 0 -134.5 52t-32.5 197v261h59v-260q0 -116 21.5 -156t97 -40t143.5 42v414h59zM161 640l207 97l22 -52l-210 -87z" />
    <glyph glyph-name="ucircumflex" unicode="&#xfb;" horiz-adv-x="525" 
d="M450 500v-500h-59v37l-21 -11q-22 -12 -60.5 -24t-72.5 -12q-102 0 -134.5 52t-32.5 197v261h59v-260q0 -116 21.5 -156t97 -40t143.5 42v414h59zM111 595l122 137h42l123 -137h-63l-80 92l-81 -92h-63z" />
    <glyph glyph-name="udieresis" unicode="&#xfc;" horiz-adv-x="525" 
d="M450 500v-500h-59v37l-21 -11q-22 -12 -60.5 -24t-72.5 -12q-102 0 -134.5 52t-32.5 197v261h59v-260q0 -116 21.5 -156t97 -40t143.5 42v414h59zM138 627v80h59v-80h-59zM335 627v80h58v-80h-58z" />
    <glyph glyph-name="yacute" unicode="&#xfd;" horiz-adv-x="478" 
d="M27 500h61l133 -448h36l134 448h61l-216 -725h-60l67 225h-69zM161 640l207 97l22 -52l-210 -87z" />
    <glyph glyph-name="thorn" unicode="&#xfe;" horiz-adv-x="522" 
d="M237 43q104 0 137 48.5t33 161t-25.5 158t-95.5 45.5q-34 0 -72 -8.5t-59 -17.5l-21 -8v-373q70 -6 103 -6zM290 510q100 0 139 -57.5t39 -199.5t-48.5 -202.5t-178.5 -60.5l-107 7v-222h-59v947h59v-249q79 37 156 37z" />
    <glyph glyph-name="ydieresis" unicode="&#xff;" horiz-adv-x="478" 
d="M27 500h61l133 -448h36l134 448h61l-216 -725h-60l67 225h-69zM110 627v80h59v-80h-59zM307 627v80h58v-80h-58z" />
    <glyph glyph-name="Amacron" unicode="&#x100;" horiz-adv-x="594" 
d="M25 0l200 695h145l199 -695h-61l-56 192h-310l-55 -192h-62zM270 641l-113 -394h280l-113 394h-54zM146 819v49h302v-49h-302z" />
    <glyph glyph-name="amacron" unicode="&#x101;" horiz-adv-x="499" 
d="M419 351v-268q4 -37 65 -44l-3 -48q-77 0 -113 40q-94 -41 -188 -41q-67 0 -102 38.5t-35 110t35.5 106t111.5 42.5l170 17v47q0 56 -24.5 80.5t-65.5 24.5q-64 0 -166 -12l-31 -3l-3 48q110 21 192.5 21t119.5 -39t37 -120zM105 142q0 -101 83 -101q36 0 79 8.5t68 17.5
l25 9v181l-163 -17q-49 -4 -70.5 -28t-21.5 -70zM113 631v49h272v-49h-272z" />
    <glyph glyph-name="Abreve" unicode="&#x102;" horiz-adv-x="594" 
d="M25 0l200 695h145l199 -695h-61l-56 192h-310l-55 -192h-62zM270 641l-113 -394h280l-113 394h-54zM295 841q39 0 66 21.5t28 57.5h56q-1 -57 -43 -92t-107 -35t-106.5 35t-43.5 92h57q1 -36 27.5 -57.5t65.5 -21.5z" />
    <glyph glyph-name="abreve" unicode="&#x103;" horiz-adv-x="501" 
d="M419 349v-261q4 -38 65 -45l-3 -52q-79 0 -113 38l-26 -10q-25 -10 -73 -19.5t-93 -9.5q-63 0 -98 39t-35 110t35.5 106t111.5 42l170 17v45q0 103 -96 103q-73 0 -190 -15l-4 53l32 5q88 14 164 14q78 0 115.5 -39t37.5 -121zM183 43q85 0 177 34v177l-163 -15
q-92 -8 -92 -97q0 -48 20.5 -73.5t57.5 -25.5zM252 646q42 0 66 23t25 60h61q-2 -61 -42.5 -99t-109.5 -38t-109.5 38t-42.5 99h61q1 -37 25 -60t66 -23z" />
    <glyph glyph-name="Aogonek" unicode="&#x104;" horiz-adv-x="594" 
d="M489 -110q0 -17 12 -30t31 -13l52 6l6 -48q-41 -9 -76 -9t-59.5 23t-24.5 57.5t27 70.5t50 56l-55 189h-310l-55 -192h-62l200 695h145l199 -695h-6q-32 -32 -53 -62.5t-21 -47.5zM270 641l-113 -394h280l-113 394h-54z" />
    <glyph glyph-name="aogonek" unicode="&#x105;" horiz-adv-x="498" 
d="M419 351v-268q4 -37 65 -44l-3 -48q-13 0 -33 2q-66 -73 -66 -96.5t12 -36.5t31 -13l52 6l6 -48q-41 -9 -76 -9t-59.5 23t-24.5 62q0 22 19 52q25 40 60 72q-20 9 -34 26q-94 -41 -188 -41q-67 0 -102 38.5t-35 110t35.5 106t111.5 42.5l170 17v47q0 56 -24.5 80.5
t-65.5 24.5q-64 0 -166 -12l-31 -3l-3 48q110 21 192.5 21t119.5 -39t37 -120zM105 142q0 -101 83 -101q36 0 79 8.5t68 17.5l25 9v181l-163 -17q-49 -4 -70.5 -28t-21.5 -70z" />
    <glyph glyph-name="Cacute" unicode="&#x106;" horiz-adv-x="544" 
d="M502 11q-103 -21 -176 -21t-117.5 15.5t-72.5 43.5t-44 73q-30 82 -30 223q0 226 72 299q59 61 180 61q83 0 188 -21l-3 -54q-104 19 -167 19t-97.5 -13.5t-56 -36t-32.5 -62.5q-20 -68 -20 -170t7 -152.5t27 -91.5t59 -59t108 -18t172 19zM190 829l207 99l22 -54
l-209 -88z" />
    <glyph glyph-name="cacute" unicode="&#x107;" horiz-adv-x="433" 
d="M261 510q45 0 107 -10l23 -3l-3 -51q-79 10 -117 10q-89 0 -122 -43.5t-33 -160t30 -162.5t125 -46l119 9l2 -51q-89 -12 -132 -12q-119 0 -162.5 59t-43.5 203t47.5 201t159.5 57zM133 640l207 97l22 -52l-210 -87z" />
    <glyph glyph-name="Ccircumflex" unicode="&#x108;" horiz-adv-x="544" 
d="M502 11q-103 -21 -176 -21t-117.5 15.5t-72.5 43.5t-44 73q-30 82 -30 223q0 226 72 299q59 61 180 61q83 0 188 -21l-3 -54q-104 19 -167 19t-97.5 -13.5t-56 -36t-32.5 -62.5q-20 -68 -20 -170t7 -152.5t27 -91.5t59 -59t108 -18t172 19zM153 798l134 131h52l134 -131
h-69l-90 86l-91 -86h-70z" />
    <glyph glyph-name="ccircumflex" unicode="&#x109;" horiz-adv-x="433" 
d="M261 510q45 0 107 -10l23 -3l-3 -51q-79 10 -117 10q-89 0 -122 -43.5t-33 -160t30 -162.5t125 -46l119 9l2 -51q-89 -12 -132 -12q-119 0 -162.5 59t-43.5 203t47.5 201t159.5 57zM91 595l122 137h42l123 -137h-63l-80 92l-81 -92h-63z" />
    <glyph glyph-name="Cdotaccent" unicode="&#x10a;" horiz-adv-x="544" 
d="M502 11q-103 -21 -176 -21t-117.5 15.5t-72.5 43.5t-44 73q-30 82 -30 223q0 226 72 299q59 61 180 61q83 0 188 -21l-3 -54q-104 19 -167 19t-97.5 -13.5t-56 -36t-32.5 -62.5q-20 -68 -20 -170t7 -152.5t27 -91.5t59 -59t108 -18t172 19zM264 807v75h60v-75h-60z" />
    <glyph glyph-name="cdotaccent" unicode="&#x10b;" horiz-adv-x="433" 
d="M261 510q45 0 107 -10l23 -3l-3 -51q-79 10 -117 10q-89 0 -122 -43.5t-33 -160t30 -162.5t125 -46l119 9l2 -51q-89 -12 -132 -12q-119 0 -162.5 59t-43.5 203t47.5 201t159.5 57zM219 623v75h60v-75h-60z" />
    <glyph glyph-name="Ccaron" unicode="&#x10c;" horiz-adv-x="544" 
d="M502 11q-103 -21 -176 -21t-117.5 15.5t-72.5 43.5t-44 73q-30 82 -30 223q0 226 72 299q59 61 180 61q83 0 188 -21l-3 -54q-104 19 -167 19t-97.5 -13.5t-56 -36t-32.5 -62.5q-20 -68 -20 -170t7 -152.5t27 -91.5t59 -59t108 -18t172 19zM276 798l-134 131h69l91 -86
l90 86h70l-134 -131h-52z" />
    <glyph glyph-name="ccaron" unicode="&#x10d;" horiz-adv-x="433" 
d="M261 510q45 0 107 -10l23 -3l-3 -51q-79 10 -117 10q-89 0 -122 -43.5t-33 -160t30 -162.5t125 -46l119 9l2 -51q-89 -12 -132 -12q-119 0 -162.5 59t-43.5 203t47.5 201t159.5 57zM218 595l-122 137h62l82 -91l81 91h62l-123 -137h-42z" />
    <glyph glyph-name="Dcaron" unicode="&#x10e;" horiz-adv-x="646" 
d="M340 0h-253v695h253q247 0 247 -338q0 -357 -247 -357zM523 357q0 282 -183 282h-191v-584h191q183 0 183 302zM266 798l-134 131h69l91 -86l90 86h70l-134 -131h-52z" />
    <glyph glyph-name="dcaron" unicode="&#x10f;" horiz-adv-x="552" 
d="M550 685h60l-48 -201h-51zM449 722v-722h-60v37q-79 -47 -160 -47q-37 0 -64 8.5t-55 33.5q-57 51 -57 199.5t48 213.5t162 65q44 0 126 -13v225h60zM191.5 51q18.5 -7 48 -7t68 11t60.5 21l21 11v358q-80 12 -124 12q-85 0 -117.5 -52t-32.5 -161q0 -128 39 -167
q19 -19 37.5 -26z" />
    <glyph glyph-name="Dcroat" unicode="&#x110;" horiz-adv-x="649" 
d="M19 320v58h71v319h252q248 0 248 -338q0 -359 -248 -359h-252v320h-71zM526 359q0 280 -184 280h-191v-261h165v-58h-165v-262h191q52 0 89.5 25.5t57.5 70.5q37 83 37 205z" />
    <glyph glyph-name="dcroat" unicode="&#x111;" horiz-adv-x="523" 
d="M449 722v-47h36v-53h-36v-622h-60v37q-79 -47 -160 -47q-37 0 -64 8.5t-55 33.5q-57 51 -57 199.5t48 213.5t162 65q44 0 126 -13v125h-186v53h186v47h60zM191.5 51q18.5 -7 48 -7t68 11t60.5 21l21 11v358q-80 12 -124 12q-85 0 -117.5 -52t-32.5 -161q0 -128 39 -167
q19 -19 37.5 -26z" />
    <glyph glyph-name="Emacron" unicode="&#x112;" horiz-adv-x="552" 
d="M87 0v695h417v-56h-355v-258h295v-55h-295v-271h355v-55h-417zM143 819v49h302v-49h-302z" />
    <glyph glyph-name="emacron" unicode="&#x113;" horiz-adv-x="504" 
d="M406 50l30 3l2 -49q-113 -14 -191 -14q-108 1 -151 64t-43 194q0 262 206 262q99 0 148 -56.5t49 -180.5l-2 -48h-340q0 -92 31.5 -136.5t108 -44.5t152.5 6zM114 275h282q0 99 -32.5 141t-104 42t-108.5 -43.5t-37 -139.5zM126 631v49h272v-49h-272z" />
    <glyph glyph-name="Ebreve" unicode="&#x114;" horiz-adv-x="552" 
d="M87 0v695h417v-56h-355v-258h295v-55h-295v-271h355v-55h-417zM305 841q39 0 66 21.5t28 57.5h56q-1 -57 -43 -92t-107 -35t-106.5 35t-43.5 92h57q1 -36 27.5 -57.5t65.5 -21.5z" />
    <glyph glyph-name="ebreve" unicode="&#x115;" horiz-adv-x="504" 
d="M406 50l30 3l2 -49q-113 -14 -191 -14q-108 1 -151 64t-43 194q0 262 206 262q99 0 148 -56.5t49 -180.5l-2 -48h-340q0 -92 31.5 -136.5t108 -44.5t152.5 6zM114 275h282q0 99 -32.5 141t-104 42t-108.5 -43.5t-37 -139.5zM255 636q43 0 67.5 25t25.5 64h52
q-2 -59 -41.5 -97.5t-103.5 -38.5t-103 38.5t-41 97.5h51q1 -40 25.5 -64.5t67.5 -24.5z" />
    <glyph glyph-name="Edotaccent" unicode="&#x116;" horiz-adv-x="552" 
d="M87 0v695h417v-56h-355v-258h295v-55h-295v-271h355v-55h-417zM266 809v75h60v-75h-60z" />
    <glyph glyph-name="edotaccent" unicode="&#x117;" horiz-adv-x="504" 
d="M406 50l30 3l2 -49q-113 -14 -191 -14q-108 1 -151 64t-43 194q0 262 206 262q99 0 148 -56.5t49 -180.5l-2 -48h-340q0 -92 31.5 -136.5t108 -44.5t152.5 6zM114 275h282q0 99 -32.5 141t-104 42t-108.5 -43.5t-37 -139.5zM223 623v75h60v-75h-60z" />
    <glyph glyph-name="Eogonek" unicode="&#x118;" horiz-adv-x="552" 
d="M87 0v695h417v-56h-355v-258h295v-55h-295v-271h355v-55h-29q-32 -32 -53 -62.5t-21 -47.5t12 -30t31 -13l52 6l6 -48q-41 -9 -76 -9t-59.5 23t-24.5 57t24.5 68t49.5 56h-329z" />
    <glyph glyph-name="eogonek" unicode="&#x119;" horiz-adv-x="504" 
d="M341 -107q0 -20 12 -33t31 -13l52 6l6 -48q-41 -9 -76 -9t-59.5 23t-24.5 65.5t69 111.5q-68 -6 -104 -6q-108 1 -151 64t-43 194q0 262 206 262q99 0 148 -56.5t49 -180.5l-2 -48h-340q0 -92 31.5 -136.5t107.5 -44.5q77 0 153 6l30 3l2 -49q-10 -1 -22 -3
q-75 -76 -75 -108zM114 275h282q0 99 -32.5 141t-104 42t-108.5 -43.5t-37 -139.5z" />
    <glyph glyph-name="Ecaron" unicode="&#x11a;" horiz-adv-x="552" 
d="M87 0v695h417v-56h-355v-258h295v-55h-295v-271h355v-55h-417zM267 798l-134 131h69l91 -86l90 86h70l-134 -131h-52z" />
    <glyph glyph-name="ecaron" unicode="&#x11b;" horiz-adv-x="504" 
d="M406 50l30 3l2 -49q-113 -14 -191 -14q-108 1 -151 64t-43 194q0 262 206 262q99 0 148 -56.5t49 -180.5l-2 -48h-340q0 -92 31.5 -136.5t108 -44.5t152.5 6zM114 275h282q0 99 -32.5 141t-104 42t-108.5 -43.5t-37 -139.5zM230 595l-122 137h62l82 -91l81 91h62
l-123 -137h-42z" />
    <glyph glyph-name="Gcircumflex" unicode="&#x11c;" horiz-adv-x="617" 
d="M360 299v55h189v-336q-29 -6 -102 -15.5t-121 -9.5q-150 0 -208 88t-58 267q0 89 12 152t42 112q57 96 211 96q94 0 191 -20l33 -6l-3 -53q-125 23 -216 23q-121 0 -163.5 -72.5t-42.5 -230.5t42.5 -229t162.5 -71q71 0 159 16v234h-128zM160 794l134 131h52l134 -131
h-69l-90 86l-91 -86h-70z" />
    <glyph glyph-name="gcircumflex" unicode="&#x11d;" horiz-adv-x="509" 
d="M425.5 -199q-54.5 -38 -169.5 -38t-159 33t-44 121q0 42 18 67.5t63 58.5q-25 16 -25 68q0 16 24 63l8 15q-82 34 -82 151q0 170 181 170q51 0 90 -10l15 -3l145 3v-53l-100 2q36 -36 36 -118.5t-45.5 -120t-143.5 -37.5q-29 0 -51 4q-20 -49 -20 -62q0 -33 19.5 -40.5
t116.5 -8t137.5 -29t40.5 -113.5t-54.5 -123zM113 -79q0 -60 30 -83t116 -23t123 24.5t37 82t-27 74.5t-103 17l-113 4q-37 -26 -50 -45.5t-13 -50.5zM148 249.5q28 -26.5 94.5 -26.5t94.5 26t28 91.5t-28 92.5t-94.5 27t-94.5 -27.5t-28 -92t28 -91zM116 595l122 137h42
l123 -137h-63l-80 92l-81 -92h-63z" />
    <glyph glyph-name="Gbreve" unicode="&#x11e;" horiz-adv-x="617" 
d="M360 296v55h189v-336q-29 -6 -102 -15.5t-121 -9.5q-150 0 -208 88t-58 267q0 89 12 152t42 112q57 96 211 96q94 0 191 -19l33 -7l-3 -53q-125 23 -216 23q-121 0 -163.5 -72.5t-42.5 -230.5t42.5 -229t162.5 -71q71 0 159 16v234h-128zM330 841q39 0 66 21.5t28 57.5
h56q-1 -57 -43 -92t-107 -35t-106.5 35t-43.5 92h57q1 -36 27.5 -57.5t65.5 -21.5z" />
    <glyph glyph-name="gbreve" unicode="&#x11f;" horiz-adv-x="509" 
d="M425.5 -199q-54.5 -38 -169.5 -38t-159 33t-44 121q0 42 18 67.5t63 58.5q-25 16 -25 68q0 16 24 63l8 15q-82 34 -82 151q0 170 181 170q51 0 90 -10l15 -3l145 3v-53l-100 2q36 -36 36 -118.5t-45.5 -120t-143.5 -37.5q-29 0 -51 4q-20 -49 -20 -62q0 -33 19.5 -40.5
t116.5 -8t137.5 -29t40.5 -113.5t-54.5 -123zM113 -79q0 -60 30 -83t116 -23t123 24.5t37 82t-27 74.5t-103 17l-113 4q-37 -26 -50 -45.5t-13 -50.5zM148 249.5q28 -26.5 94.5 -26.5t94.5 26t28 91.5t-28 92.5t-94.5 27t-94.5 -27.5t-28 -92t28 -91zM259 636q43 0 67.5 25
t25.5 64h52q-2 -59 -41.5 -97.5t-103.5 -38.5t-103 38.5t-41 97.5h51q1 -40 25.5 -64.5t67.5 -24.5z" />
    <glyph glyph-name="Gdotaccent" unicode="&#x120;" horiz-adv-x="617" 
d="M360 296v55h189v-336q-29 -6 -102 -15.5t-121 -9.5q-150 0 -208 88t-58 267q0 89 12 152t42 112q57 96 211 96q94 0 191 -19l33 -7l-3 -53q-125 23 -216 23q-121 0 -163.5 -72.5t-42.5 -230.5t42.5 -229t162.5 -71q71 0 159 16v234h-128zM283 809v75h60v-75h-60z" />
    <glyph glyph-name="gdotaccent" unicode="&#x121;" horiz-adv-x="509" 
d="M425.5 -199q-54.5 -38 -169.5 -38t-159 33t-44 121q0 42 18 67.5t63 58.5q-25 16 -25 68q0 16 24 63l8 15q-82 34 -82 151q0 170 181 170q51 0 90 -10l15 -3l145 3v-53l-100 2q36 -36 36 -118.5t-45.5 -120t-143.5 -37.5q-29 0 -51 4q-20 -49 -20 -62q0 -33 19.5 -40.5
t116.5 -8t137.5 -29t40.5 -113.5t-54.5 -123zM113 -79q0 -60 30 -83t116 -23t123 24.5t37 82t-27 74.5t-103 17l-113 4q-37 -26 -50 -45.5t-13 -50.5zM148 249.5q28 -26.5 94.5 -26.5t94.5 26t28 91.5t-28 92.5t-94.5 27t-94.5 -27.5t-28 -92t28 -91zM228 623v75h60v-75h-60
z" />
    <glyph glyph-name="Gcommaaccent" unicode="&#x122;" horiz-adv-x="617" 
d="M360 296v55h189v-336q-29 -6 -102 -15.5t-121 -9.5q-150 0 -208 88t-58 267q0 89 12 152t42 112q57 96 211 96q94 0 191 -19l33 -7l-3 -53q-125 23 -216 23q-121 0 -163.5 -72.5t-42.5 -230.5t42.5 -229t162.5 -71q71 0 159 16v234h-128zM309 -78h61l-49 -200h-51z" />
    <glyph glyph-name="gcommaaccent" unicode="&#x123;" horiz-adv-x="509" 
d="M297 791l-39 -201h-60l48 201h51zM425.5 -199q-54.5 -38 -169.5 -38t-159 33t-44 121q0 42 18 67.5t63 58.5q-25 16 -25 68q0 16 24 63l8 15q-82 34 -82 151q0 170 181 170q51 0 90 -10l15 -3l145 3v-53l-100 2q36 -36 36 -118.5t-45.5 -120t-143.5 -37.5q-29 0 -51 4
q-20 -49 -20 -62q0 -33 19.5 -40.5t116.5 -8t137.5 -29t40.5 -113.5t-54.5 -123zM113 -79q0 -60 30 -83t116 -23t123 24.5t37 82t-27 74.5t-103 17l-113 4q-37 -26 -50 -45.5t-13 -50.5zM148 249.5q28 -26.5 94.5 -26.5t94.5 26t28 91.5t-28 92.5t-94.5 27t-94.5 -27.5
t-28 -92t28 -91z" />
    <glyph glyph-name="Hcircumflex" unicode="&#x124;" horiz-adv-x="675" 
d="M526 0v321h-377v-321h-62v695h62v-319h377v319h61v-695h-61zM178 798l134 131h52l134 -131h-69l-90 86l-91 -86h-70z" />
    <glyph glyph-name="hcircumflex" unicode="&#x125;" horiz-adv-x="533" 
d="M134 0h-59v722h59v-251q84 39 162 39q100 0 133.5 -53t33.5 -194v-263h-60v260q0 115 -21.5 155.5t-93.5 40.5q-35 0 -73.5 -8.5t-59.5 -17.5l-21 -8v-422zM121 780l122 137h42l123 -137h-63l-80 92l-81 -92h-63z" />
    <glyph glyph-name="Hbar" unicode="&#x126;" horiz-adv-x="686" 
d="M14 513v53h77v129h62v-129h377v129h61v-129h86v-53h-86v-513h-61v321h-377v-321h-62v513h-77zM153 376h377v137h-377v-137z" />
    <glyph glyph-name="hbar" unicode="&#x127;" horiz-adv-x="533" 
d="M9 592v53h66v77h59v-77h157v-53h-157v-121q84 39 162 39q100 0 133.5 -53t33.5 -194v-263h-60v260q0 115 -21.5 155.5t-93.5 40.5q-35 0 -73.5 -8.5t-59.5 -17.5l-21 -8v-422h-59v592h-66z" />
    <glyph glyph-name="Itilde" unicode="&#x128;" horiz-adv-x="236" 
d="M87 0v695h62v-695h-62zM192 814q-20 0 -81.5 28.5t-74.5 28.5q-22 0 -60 -37l-12 -13l-15 46q47 56 85 56q26 0 87 -27.5t72 -27.5q19 0 55 34l12 12l15 -45q-46 -55 -83 -55z" />
    <glyph glyph-name="itilde" unicode="&#x129;" horiz-adv-x="209" 
d="M75 500h59v-500h-59v500zM179 619q-21 0 -74 24.5t-65 24.5q-24 0 -62 -30l-13 -11l-15 40q50 50 88 50q21 0 74.5 -24t65.5 -24q21 0 56 29l12 10l14 -42q-45 -47 -81 -47z" />
    <glyph glyph-name="Imacron" unicode="&#x12a;" horiz-adv-x="236" 
d="M87 0v695h62v-695h-62zM-31 819v49h302v-49h-302z" />
    <glyph glyph-name="imacron" unicode="&#x12b;" horiz-adv-x="209" 
d="M75 500h59v-500h-59v500zM-31 631v49h272v-49h-272z" />
    <glyph glyph-name="Ibreve" unicode="&#x12c;" horiz-adv-x="236" 
d="M87 0v695h62v-695h-62zM124 841q39 0 66 21.5t28 57.5h56q-1 -57 -43 -92t-107 -35t-106.5 35t-43.5 92h57q1 -36 27.5 -57.5t65.5 -21.5z" />
    <glyph glyph-name="ibreve" unicode="&#x12d;" horiz-adv-x="209" 
d="M75 500h59v-500h-59v500zM105 636q43 0 67.5 25t25.5 64h52q-2 -59 -41.5 -97.5t-103.5 -38.5t-103 38.5t-41 97.5h51q1 -40 25.5 -64.5t67.5 -24.5z" />
    <glyph glyph-name="Iogonek" unicode="&#x12e;" horiz-adv-x="236" 
d="M87 0v695h62v-695q-78 -75 -78 -107q0 -20 12.5 -33t31.5 -13l52 6l6 -48q-42 -9 -76.5 -9t-59.5 23t-25 62q0 50 76 119h-1z" />
    <glyph glyph-name="iogonek" unicode="&#x12f;" horiz-adv-x="209" 
d="M75 0v500h59v-500q-77 -74 -77 -107q0 -20 12 -33t31 -13l53 6l6 -48q-42 -9 -77 -9t-59.5 23t-24.5 57t26 67.5t52 56.5h-1zM75 625v75h59v-75h-59z" />
    <glyph glyph-name="Idotaccent" unicode="&#x130;" horiz-adv-x="236" 
d="M87 0v695h62v-695h-62zM88 809v75h60v-75h-60z" />
    <glyph glyph-name="dotlessi" unicode="&#x131;" horiz-adv-x="209" 
d="M75 0v500h59v-500h-59z" />
    <glyph glyph-name="Jcircumflex" unicode="&#x134;" horiz-adv-x="285" 
d="M201 695v-606q0 -56 -9.5 -88.5t-35 -48.5t-54.5 -20t-84 -4v55q43 0 62 2.5t35.5 14.5t20.5 35t4 67v593h61zM9 794l134 131h52l134 -131h-69l-90 86l-91 -86h-70z" />
    <glyph glyph-name="jcircumflex" unicode="&#x135;" horiz-adv-x="209" 
d="M75 10v490h60v-491q0 -88 -32.5 -134t-131.5 -96l-24 48q80 45 104 79t24 104zM-41 595l122 137h42l123 -137h-63l-80 92l-81 -92h-63z" />
    <glyph glyph-name="Kcommaaccent" unicode="&#x136;" horiz-adv-x="562" 
d="M149 0h-62v697h62v-326l119 2l193 324h72l-210 -349l223 -348h-74l-202 314l-121 -2v-312zM269 -78h60l-48 -200h-51z" />
    <glyph glyph-name="kcommaaccent" unicode="&#x137;" horiz-adv-x="470" 
d="M127 -278l39 200h61l-49 -200h-51zM134 0h-59v722h59v-430l85 2l154 206h69l-171 -229l179 -271h-70l-160 241l-86 -2v-239z" />
    <glyph glyph-name="Lacute" unicode="&#x139;" horiz-adv-x="480" 
d="M467 0h-380v697h62v-638h318v-59zM140 829l207 99l22 -54l-209 -88z" />
    <glyph glyph-name="lacute" unicode="&#x13a;" horiz-adv-x="221" 
d="M81 0v722h59v-722h-59zM54 842l207 97l22 -52l-210 -87z" />
    <glyph glyph-name="Lcommaaccent" unicode="&#x13b;" horiz-adv-x="480" 
d="M250 -78h60l-48 -200h-52zM467 0h-380v695h62v-639h318v-56z" />
    <glyph glyph-name="lcommaaccent" unicode="&#x13c;" horiz-adv-x="221" 
d="M81 0v722h59v-722h-59zM75 -78h61l-49 -200h-51z" />
    <glyph glyph-name="Lcaron" unicode="&#x13d;" horiz-adv-x="493" 
d="M433 697v-227h-58v227h58zM467 0h-380v695h62v-639h318v-56z" />
    <glyph glyph-name="lcaron" unicode="&#x13e;" horiz-adv-x="243" 
d="M243 685h60l-48 -201h-51zM81 0v722h59v-722h-59z" />
    <glyph glyph-name="Lslash" unicode="&#x141;" horiz-adv-x="484" 
d="M471 0h-380v285l-60 -42l-30 42l90 63v347h62v-304l153 108l30 -42l-183 -129v-272h318v-56z" />
    <glyph glyph-name="lslash" unicode="&#x142;" horiz-adv-x="292" 
d="M113 0v294l-71 -50l-31 43l102 71v364h60v-322l76 54l31 -43l-107 -75v-336h-60z" />
    <glyph glyph-name="Nacute" unicode="&#x143;" horiz-adv-x="672" 
d="M87 0v695h122l291 -640h23v640h61v-695h-120l-293 639h-22v-639h-62zM224 829l207 99l22 -54l-209 -88z" />
    <glyph glyph-name="nacute" unicode="&#x144;" horiz-adv-x="533" 
d="M75 0v500h59v-37l23 11q23 12 64 24t76 12q100 0 133.5 -53t33.5 -194v-263h-60v260q0 115 -22 155.5t-97 40.5t-151 -42v-414h-59zM164 640l207 97l22 -52l-210 -87z" />
    <glyph glyph-name="Ncommaaccent" unicode="&#x145;" horiz-adv-x="672" 
d="M330 -78h60l-48 -200h-52zM87 0v695h122l291 -640h23v640h61v-695h-120l-293 639h-22v-639h-62z" />
    <glyph glyph-name="ncommaaccent" unicode="&#x146;" horiz-adv-x="533" 
d="M162 -278l39 200h60l-48 -200h-51zM134 0h-59v500h59v-37q84 47 163 47q100 0 133.5 -53t33.5 -194v-263h-60v260q0 115 -22 155.5t-94 40.5q-35 0 -73.5 -10.5t-59.5 -21.5l-21 -10v-414z" />
    <glyph glyph-name="Ncaron" unicode="&#x147;" horiz-adv-x="672" 
d="M87 0v695h122l291 -640h23v640h61v-695h-120l-293 639h-22v-639h-62zM310 794l-134 131h69l91 -86l90 86h70l-134 -131h-52z" />
    <glyph glyph-name="ncaron" unicode="&#x148;" horiz-adv-x="533" 
d="M134 0h-59v500h59v-37q84 47 163 47q100 0 133.5 -53t33.5 -194v-263h-60v260q0 115 -22 155.5t-94 40.5q-35 0 -73.5 -10.5t-59.5 -21.5l-21 -10v-414zM245 595l-122 137h62l82 -91l81 91h62l-123 -137h-42z" />
    <glyph glyph-name="Eng" unicode="&#x14a;" horiz-adv-x="672" 
d="M87 0v695h122l291 -640h23v640h61v-717q0 -56 -9.5 -88.5t-35 -48.5t-54.5 -20t-84 -4v55q43 0 62 2.5t35.5 14.5t20.5 35t4 67v9h-59l-293 639h-22v-639h-62z" />
    <glyph glyph-name="eng" unicode="&#x14b;" horiz-adv-x="534" 
d="M134 0h-60v500h60v-36q88 46 164 46q98 0 132 -56t34 -194v-264q0 -90 -30 -134t-126 -97l-25 51q76 45 99 78t23 101v264q0 109 -22.5 152.5t-91.5 43.5q-33 0 -72.5 -10.5t-62.5 -20.5l-22 -11v-413z" />
    <glyph glyph-name="Omacron" unicode="&#x14c;" horiz-adv-x="662" 
d="M166 115.5q42 -69.5 165.5 -69.5t165.5 68t42 227.5t-44 233.5t-164 74q-124 0 -167 -80q-23 -41 -31.5 -94t-8.5 -131q0 -159 42 -228.5zM544.5 73q-58.5 -83 -213 -83t-213 85t-58.5 268.5t59 272.5t212 89t212.5 -88.5t59.5 -274.5t-58.5 -269zM180 819v49h302v-49
h-302z" />
    <glyph glyph-name="omacron" unicode="&#x14d;" horiz-adv-x="527" 
d="M425.5 451q47.5 -59 47.5 -200t-43.5 -201t-165.5 -60t-166 60t-44 201t47.5 200t162 59t162 -59zM384 89q28 46 28 163.5t-31.5 161t-116.5 43.5t-116.5 -43t-31.5 -161.5t27.5 -164t120 -45.5t120.5 46zM129 646v49h272v-49h-272z" />
    <glyph glyph-name="Obreve" unicode="&#x14e;" horiz-adv-x="662" 
d="M166 115.5q42 -69.5 165.5 -69.5t165.5 68t42 227.5t-44 233.5t-164 74q-124 0 -167 -80q-23 -41 -31.5 -94t-8.5 -131q0 -159 42 -228.5zM544.5 73q-58.5 -83 -213 -83t-213 85t-58.5 268.5t59 272.5t212 89t212.5 -88.5t59.5 -274.5t-58.5 -269zM332 841q39 0 66 21.5
t28 57.5h56q-1 -57 -43 -92t-107 -35t-106.5 35t-43.5 92h57q1 -36 27.5 -57.5t65.5 -21.5z" />
    <glyph glyph-name="obreve" unicode="&#x14f;" horiz-adv-x="527" 
d="M425.5 451q47.5 -59 47.5 -200t-43.5 -201t-165.5 -60t-166 60t-44 201t47.5 200t162 59t162 -59zM384 89q28 46 28 163.5t-31.5 161t-116.5 43.5t-116.5 -43t-31.5 -161.5t27.5 -164t120 -45.5t120.5 46zM198.5 660.5q24.5 -24.5 67 -24.5t67.5 25t26 64h52
q-2 -59 -41.5 -97.5t-103.5 -38.5t-103 38.5t-41 97.5h51q1 -40 25.5 -64.5z" />
    <glyph glyph-name="Ohungarumlaut" unicode="&#x150;" horiz-adv-x="662" 
d="M166 115.5q42 -69.5 165.5 -69.5t165.5 68t42 227.5t-44 233.5t-164 74q-124 0 -167 -80q-23 -41 -31.5 -94t-8.5 -131q0 -159 42 -228.5zM544.5 73q-58.5 -83 -213 -83t-213 85t-58.5 268.5t59 272.5t212 89t212.5 -88.5t59.5 -274.5t-58.5 -269zM344 787l160 114
l41 -32l-164 -114zM149 787l161 115l39 -33l-162 -113z" />
    <glyph glyph-name="ohungarumlaut" unicode="&#x151;" horiz-adv-x="527" 
d="M425.5 451q47.5 -59 47.5 -200t-43.5 -201t-165.5 -60t-166 60t-44 201t47.5 200t162 59t162 -59zM384 89q28 46 28 163.5t-31.5 161t-116.5 43.5t-116.5 -43t-31.5 -161.5t27.5 -164t120 -45.5t120.5 46zM293 623l151 126l41 -37l-153 -125zM103 623l152 126l40 -37
l-153 -125z" />
    <glyph glyph-name="OE" unicode="&#x152;" horiz-adv-x="930" 
d="M882 -1h-408q-92 -9 -148 -9q-153 0 -209.5 84.5t-56.5 271t58 274t208 87.5q85 0 147 -10h409v-60h-348v-250h288v-60h-288v-267h348v-61zM226 67.5q41 -17.5 97.5 -17.5t149.5 8v579q-128 11 -142 11q-121 0 -164 -70.5t-43 -231.5q0 -80 8 -131.5t30.5 -90.5
t63.5 -56.5z" />
    <glyph glyph-name="oe" unicode="&#x153;" horiz-adv-x="863" 
d="M612 45q50 0 154 7l29 2l2 -50q-113 -14 -191 -14q-123 0 -165 97q-20 -51 -61.5 -74t-114.5 -23q-122 0 -166.5 60.5t-44.5 201t48.5 199t162.5 58.5q70 0 113.5 -26t65.5 -84q45 110 174 110q99 0 148 -56.5t49 -179.5l-2 -48h-340q0 -92 31.5 -136t107.5 -44z
M144.5 90.5q28.5 -46.5 120 -46.5t119.5 48t28 159.5t-35 157.5t-116 46t-113 -42.5t-32 -159t28.5 -163zM473 275h282q0 98 -32.5 139.5t-104.5 41.5q-145 0 -145 -181z" />
    <glyph glyph-name="Racute" unicode="&#x154;" horiz-adv-x="615" 
d="M149 274v-274h-62v695h255q109 0 162.5 -49.5t53.5 -156.5q0 -167 -134 -203l143 -286h-69l-137 274h-212zM494 488q0 78 -37 115t-115 37h-193v-311h193q152 0 152 159zM191 829l207 99l22 -54l-209 -88z" />
    <glyph glyph-name="racute" unicode="&#x155;" horiz-adv-x="339" 
d="M75 0v500h59v-72q37 26 90.5 50t98.5 32v-60q-43 -9 -90 -27.5t-73 -32.5l-26 -15v-375h-59zM71 640l207 97l22 -52l-210 -87z" />
    <glyph glyph-name="Rcommaaccent" unicode="&#x156;" horiz-adv-x="615" 
d="M254 -278l39 200h60l-48 -200h-51zM149 274v-274h-62v695h255q109 0 162.5 -49.5t53.5 -156.5q0 -167 -134 -203l143 -286h-69l-137 274h-212zM494 488q0 78 -37 115t-115 37h-193v-311h193q152 0 152 159z" />
    <glyph glyph-name="rcommaaccent" unicode="&#x157;" horiz-adv-x="339" 
d="M75 -78h60l-48 -200h-52zM75 0v500h59v-72q37 26 90.5 50t98.5 32v-60q-43 -9 -90 -27.5t-73 -32.5l-26 -15v-375h-59z" />
    <glyph glyph-name="Rcaron" unicode="&#x158;" horiz-adv-x="615" 
d="M149 274v-274h-62v695h255q109 0 162.5 -49.5t53.5 -156.5q0 -167 -134 -203l143 -286h-69l-137 274h-212zM494 488q0 78 -37 115t-115 37h-193v-311h193q152 0 152 159zM274 798l-134 131h69l91 -86l90 86h70l-134 -131h-52z" />
    <glyph glyph-name="rcaron" unicode="&#x159;" horiz-adv-x="339" 
d="M75 0v500h59v-72q37 26 90.5 50t98.5 32v-60q-43 -9 -90 -27.5t-73 -32.5l-26 -15v-375h-59zM153 595l-122 137h62l82 -91l81 91h62l-123 -137h-42z" />
    <glyph glyph-name="Sacute" unicode="&#x15a;" horiz-adv-x="541" 
d="M275 651q-161 0 -161 -123q0 -72 36.5 -97t143 -46t152 -58t45.5 -124q0 -112 -55.5 -161.5t-162.5 -49.5q-78 0 -181 14l-36 5l7 53q137 -17 212 -17t114 36.5t39 107t-34.5 96t-110 39.5t-110.5 25.5t-65.5 33t-43.5 55t-13 84.5q0 182 220 182q66 0 172 -14l33 -5
l-5 -53q-138 17 -196 17zM168 829l207 99l22 -54l-209 -88z" />
    <glyph glyph-name="sacute" unicode="&#x15b;" horiz-adv-x="464" 
d="M226 455q-118 0 -118 -85q0 -39 26 -55t117.5 -31.5t129 -42.5t37.5 -103.5t-49 -112t-144 -35.5q-55 0 -142 14l-29 4l4 53q112 -17 172 -17t93.5 21t33.5 71t-27.5 66.5t-118 30.5t-127.5 40t-37 98t51 105t126 33q60 0 150 -13l27 -4l-2 -53q-107 16 -173 16zM119 640
l207 97l22 -52l-210 -87z" />
    <glyph glyph-name="Scircumflex" unicode="&#x15c;" horiz-adv-x="541" 
d="M275 651q-161 0 -161 -123q0 -72 36.5 -97t143 -46t152 -58t45.5 -124q0 -112 -55.5 -161.5t-162.5 -49.5q-78 0 -181 14l-36 5l7 53q137 -17 212 -17t114 36.5t39 107t-34.5 96t-110 39.5t-110.5 25.5t-65.5 33t-43.5 55t-13 84.5q0 182 220 182q66 0 172 -14l33 -5
l-5 -53q-138 17 -196 17zM113 794l134 131h52l134 -131h-69l-90 86l-91 -86h-70z" />
    <glyph glyph-name="scircumflex" unicode="&#x15d;" horiz-adv-x="464" 
d="M226 455q-118 0 -118 -85q0 -39 26 -55t117.5 -31.5t129 -42.5t37.5 -103.5t-49 -112t-144 -35.5q-55 0 -142 14l-29 4l4 53q112 -17 172 -17t93.5 21t33.5 71t-27.5 66.5t-118 30.5t-127.5 40t-37 98t51 105t126 33q60 0 150 -13l27 -4l-2 -53q-107 16 -173 16zM90 595
l122 137h42l123 -137h-63l-80 92l-81 -92h-63z" />
    <glyph glyph-name="Scedilla" unicode="&#x15e;" horiz-adv-x="541" 
d="M404 -127q0 -84 -89 -84l-84 6l2 40q41 -3 71 -3q45 0 45 41q0 37 -45 37h-47v82q-80 2 -169 14l-32 5l7 53q137 -17 212 -17t114 36.5t39 107t-34.5 96t-110 39.5t-110.5 25.5t-65.5 33t-43.5 55t-13 84.5q0 182 220 182q66 0 172 -14l33 -5l-5 -53q-138 17 -196 17
q-161 0 -161 -123q0 -72 36.5 -97t143 -46t152 -58t45.5 -133q0 -191 -196 -201v-45q58 0 83.5 -15.5t25.5 -59.5z" />
    <glyph glyph-name="scedilla" unicode="&#x15f;" horiz-adv-x="464" 
d="M351 -127q0 -84 -89 -84l-84 6l2 40q41 -3 71 -3q45 0 45 41q0 37 -45 37h-47v81q-47 2 -126 13l-24 4l4 53q112 -17 172 -17t93.5 21t33.5 71t-27.5 66.5t-118 30.5t-127.5 40t-37 98t51 105t126 33q60 0 150 -13l27 -4l-2 -53q-107 16 -173 16q-118 0 -118 -85
q0 -39 26 -55t117.5 -31.5t129 -42.5t37.5 -102t-44.5 -110.5t-131.5 -38.5v-42q58 0 83.5 -15.5t25.5 -59.5z" />
    <glyph glyph-name="Scaron" unicode="&#x160;" horiz-adv-x="541" 
d="M275 651q-161 0 -161 -123q0 -72 36.5 -97t143 -46t152 -58t45.5 -124q0 -112 -55.5 -161.5t-162.5 -49.5q-78 0 -181 14l-36 5l7 53q137 -17 212 -17t114 36.5t39 107t-34.5 96t-110 39.5t-110.5 25.5t-65.5 33t-43.5 55t-13 84.5q0 182 220 182q66 0 172 -14l33 -5
l-5 -53q-138 17 -196 17zM253 798l-134 131h69l91 -86l90 86h70l-134 -131h-52z" />
    <glyph glyph-name="scaron" unicode="&#x161;" horiz-adv-x="464" 
d="M226 455q-118 0 -118 -85q0 -39 26 -55t117.5 -31.5t129 -42.5t37.5 -103.5t-49 -112t-144 -35.5q-55 0 -142 14l-29 4l4 53q112 -17 172 -17t93.5 21t33.5 71t-27.5 66.5t-118 30.5t-127.5 40t-37 98t51 105t126 33q60 0 150 -13l27 -4l-2 -53q-107 16 -173 16zM219 595
l-122 137h62l82 -91l81 91h62l-123 -137h-42z" />
    <glyph glyph-name="Tcedilla" unicode="&#x162;" horiz-adv-x="0" 
 />
    <glyph glyph-name="tcedilla" unicode="&#x163;" horiz-adv-x="347" 
d="M328 447h-167v-247q0 -97 14 -127t66 -30l92 7l4 -51q-66 -10 -101 -10q-76 0 -105.5 37.5t-29.5 143.5v277h-74v53h74v157h60v-157h167v-53zM260 -127q0 -84 -89 -84l-84 6l2 40q41 -3 71 -3q45 0 45 41q0 37 -45 37h-47v91h38v-53q58 0 83.5 -15.5t25.5 -59.5z" />
    <glyph glyph-name="Tcaron" unicode="&#x164;" horiz-adv-x="526" 
d="M13 639v56h500v-56h-218v-639h-62v639h-220zM238 798l-134 131h69l91 -86l90 86h70l-134 -131h-52z" />
    <glyph glyph-name="tcaron" unicode="&#x165;" horiz-adv-x="418" 
d="M329 445h-168v-243q0 -97 14 -127t66 -30l92 7l4 -53q-66 -10 -101 -10q-76 0 -105 37.5t-29 143.5v275h-74v55h74v157h59v-157h168v-55zM426 697v-227h-58v227h58z" />
    <glyph glyph-name="Tbar" unicode="&#x166;" horiz-adv-x="529" 
d="M15 639v56h500v-56h-218v-274h170v-53h-170v-312h-62v312h-170v53h170v274h-220z" />
    <glyph glyph-name="tbar" unicode="&#x167;" horiz-adv-x="351" 
d="M331 445h-167v-132h145v-49h-145v-62q0 -97 14 -127t66 -30l92 7l4 -53q-66 -10 -101 -10q-76 0 -105.5 37.5t-29.5 143.5v94h-60v49h60v132h-74v55h74v157h60v-157h167v-55z" />
    <glyph glyph-name="Utilde" unicode="&#x168;" horiz-adv-x="642" 
d="M144 204q0 -158 173 -158q90 0 135 37t45 121v491h62v-491q0 -113 -61 -163.5t-178.5 -50.5t-177 50.5t-59.5 163.5v491h61v-491zM401 814q-20 0 -81.5 28.5t-73.5 28.5q-23 0 -60 -37l-13 -13l-15 46q47 56 85 56q25 0 86 -27.5t73 -27.5q19 0 55 34l12 12l15 -45
q-46 -55 -83 -55z" />
    <glyph glyph-name="utilde" unicode="&#x169;" horiz-adv-x="525" 
d="M450 500v-500h-59v37l-21 -11q-22 -12 -60.5 -24t-72.5 -12q-102 0 -134.5 52t-32.5 197v261h59v-260q0 -116 21.5 -156t97 -40t143.5 42v414h59zM336 619q-21 0 -74 24.5t-66 24.5q-23 0 -61 -30l-13 -11l-15 40q50 50 88 50q21 0 74.5 -24t64.5 -24q22 0 57 29l12 10
l14 -42q-45 -47 -81 -47z" />
    <glyph glyph-name="Umacron" unicode="&#x16a;" horiz-adv-x="642" 
d="M144 204q0 -158 173 -158q90 0 135 37t45 121v491h62v-491q0 -113 -61 -163.5t-178.5 -50.5t-177 50.5t-59.5 163.5v491h61v-491zM171 819v49h302v-49h-302z" />
    <glyph glyph-name="umacron" unicode="&#x16b;" horiz-adv-x="525" 
d="M450 500v-500h-59v37l-21 -11q-22 -12 -60.5 -24t-72.5 -12q-102 0 -134.5 52t-32.5 197v261h59v-260q0 -116 21.5 -156t97 -40t143.5 42v414h59zM125 631v49h272v-49h-272z" />
    <glyph glyph-name="Ubreve" unicode="&#x16c;" horiz-adv-x="642" 
d="M144 204q0 -158 173 -158q90 0 135 37t45 121v491h62v-491q0 -113 -61 -163.5t-178.5 -50.5t-177 50.5t-59.5 163.5v491h61v-491zM322 841q39 0 66 21.5t28 57.5h56q-1 -57 -43 -92t-107 -35t-106.5 35t-43.5 92h57q1 -36 27.5 -57.5t65.5 -21.5z" />
    <glyph glyph-name="ubreve" unicode="&#x16d;" horiz-adv-x="525" 
d="M450 500v-500h-59v37l-21 -11q-22 -12 -60.5 -24t-72.5 -12q-102 0 -134.5 52t-32.5 197v261h59v-260q0 -116 21.5 -156t97 -40t143.5 42v414h59zM255 636q43 0 67.5 25t25.5 64h52q-2 -59 -41.5 -97.5t-103.5 -38.5t-103 38.5t-41 97.5h51q1 -40 25.5 -64.5t67.5 -24.5z
" />
    <glyph glyph-name="Uring" unicode="&#x16e;" horiz-adv-x="642" 
d="M144 204q0 -158 173 -158q90 0 135 37t45 121v491h62v-491q0 -113 -61 -163.5t-178.5 -50.5t-177 50.5t-59.5 163.5v491h61v-491zM401.5 920q30.5 -27 30.5 -73.5t-30.5 -73.5t-79.5 -27t-79.5 27t-30.5 73.5t30.5 73.5t79.5 27t79.5 -27zM259 847q0 -27 16.5 -42
t46.5 -15t46.5 15t16.5 42t-16.5 41.5t-46.5 14.5t-46.5 -14.5t-16.5 -41.5z" />
    <glyph glyph-name="uring" unicode="&#x16f;" horiz-adv-x="525" 
d="M450 500v-500h-59v37l-21 -11q-22 -12 -60.5 -24t-72.5 -12q-102 0 -134.5 52t-32.5 197v261h59v-260q0 -116 21.5 -156t97 -40t143.5 42v414h59zM190 575q-29 29 -29 71.5t29 71.5t71.5 29t71.5 -29t29 -71.5t-29 -71.5t-71.5 -29t-71.5 29zM220.5 688
q-16.5 -17 -16.5 -41.5t16.5 -42t41 -17.5t41 17.5t16.5 42t-16.5 41.5t-41 17t-41 -17z" />
    <glyph glyph-name="Uhungarumlaut" unicode="&#x170;" horiz-adv-x="642" 
d="M144 204q0 -158 173 -158q90 0 135 37t45 121v491h62v-491q0 -113 -61 -163.5t-178.5 -50.5t-177 50.5t-59.5 163.5v491h61v-491zM350 787l160 114l41 -32l-164 -114zM155 787l161 115l39 -33l-162 -113z" />
    <glyph glyph-name="uhungarumlaut" unicode="&#x171;" horiz-adv-x="525" 
d="M450 500v-500h-59v37l-21 -11q-22 -12 -60.5 -24t-72.5 -12q-102 0 -134.5 52t-32.5 197v261h59v-260q0 -116 21.5 -156t97 -40t143.5 42v414h59zM301 623l151 126l41 -37l-153 -125zM111 623l152 126l40 -37l-153 -125z" />
    <glyph glyph-name="Uogonek" unicode="&#x172;" horiz-adv-x="642" 
d="M143 204q0 -158 173 -158q90 0 135 37t45 121v491h62v-491q0 -170 -146 -204q-32 -32 -53 -62.5t-21 -47.5t12 -30t31 -13l52 6l6 -48q-41 -9 -76 -9t-59.5 23t-24.5 64t64 108q-9 -1 -27 -1q-115 0 -174.5 50.5t-59.5 163.5v491h61v-491z" />
    <glyph glyph-name="uogonek" unicode="&#x173;" horiz-adv-x="525" 
d="M391 500h59v-500q-77 -72 -77 -107q0 -20 12 -33t31 -13l52 6l6 -48q-41 -9 -76 -9t-59.5 23t-24.5 57t26 67.5t52 56.5h-1v35q-78 -45 -154 -45q-102 0 -134.5 52t-32.5 197v261h59v-259q0 -117 21.5 -157t93.5 -40q33 0 70 10.5t57 21.5l20 10v414z" />
    <glyph glyph-name="Wcircumflex" unicode="&#x174;" horiz-adv-x="874" 
d="M33 695h63l126 -640h33l146 632h73l145 -632h33l126 640h63l-143 -695h-124l-137 610l-137 -610h-124zM277 794l134 131h52l134 -131h-69l-90 86l-91 -86h-70z" />
    <glyph glyph-name="wcircumflex" unicode="&#x175;" horiz-adv-x="760" 
d="M33 500h61l110 -448h14l130 438h63l130 -438h15l110 448h61l-125 -500h-104l-118 412l-119 -412h-103zM237 595l122 137h42l123 -137h-63l-80 92l-81 -92h-63z" />
    <glyph glyph-name="Ycircumflex" unicode="&#x176;" horiz-adv-x="534" 
d="M298 0h-62v294l-223 401h69l185 -337l184 337h70l-223 -401v-294zM107 798l134 131h52l134 -131h-69l-90 86l-91 -86h-70z" />
    <glyph glyph-name="ycircumflex" unicode="&#x177;" horiz-adv-x="478" 
d="M27 500h61l133 -448h36l134 448h61l-216 -725h-60l67 225h-69zM99 595l122 137h42l123 -137h-63l-80 92l-81 -92h-63z" />
    <glyph glyph-name="Ydieresis" unicode="&#x178;" horiz-adv-x="534" 
d="M298 0h-62v294l-223 401h69l185 -337l184 337h70l-223 -401v-294zM136 819v80h59v-80h-59zM337 819v80h58v-80h-58z" />
    <glyph glyph-name="Zacute" unicode="&#x179;" horiz-adv-x="537" 
d="M43 639v56h450v-83l-381 -536v-21h381v-56h-450v82l381 536v22h-381zM161 829l207 99l22 -54l-209 -88z" />
    <glyph glyph-name="zacute" unicode="&#x17a;" horiz-adv-x="455" 
d="M42 500h371v-54l-297 -392h297v-54h-371v54l297 392h-297v54zM121 640l207 97l22 -52l-210 -87z" />
    <glyph glyph-name="Zdotaccent" unicode="&#x17b;" horiz-adv-x="537" 
d="M43 639v56h450v-83l-381 -536v-21h381v-56h-450v82l381 536v22h-381zM238 809v75h60v-75h-60z" />
    <glyph glyph-name="zdotaccent" unicode="&#x17c;" horiz-adv-x="455" 
d="M42 500h371v-54l-297 -392h297v-54h-371v54l297 392h-297v54zM197 623v75h60v-75h-60z" />
    <glyph glyph-name="Zcaron" unicode="&#x17d;" horiz-adv-x="537" 
d="M43 639v56h450v-83l-381 -536v-21h381v-56h-450v82l381 536v22h-381zM252 798l-134 131h69l91 -86l90 86h70l-134 -131h-52z" />
    <glyph glyph-name="zcaron" unicode="&#x17e;" horiz-adv-x="455" 
d="M42 446v54h371v-54l-297 -392h297v-54h-371v54l297 392h-297zM207 595l-122 137h62l82 -91l81 91h62l-123 -137h-42z" />
    <glyph glyph-name="florin" unicode="&#x192;" 
d="M271 -57q0 -100 -32 -140t-106 -40l-96 7l2 52q59 -4 96.5 -4t56.5 28t19 98v416h-65v53h65v61q0 90 17 132.5t44.5 59.5t58.5 17q49 0 94 -6l15 -2l-1 -51q-46 4 -87 4q-81 0 -81 -127v-88h151v-53h-151v-417z" />
    <glyph glyph-name="Aringacute" unicode="&#x1fa;" horiz-adv-x="594" 
d="M376.5 825q30.5 -27 30.5 -74t-32 -74l194 -677h-61l-56 192h-310l-55 -192h-62l194 676q-32 27 -32 74.5t30.5 74.5t79.5 27t79.5 -27zM270 641l-113 -394h280l-113 394h-54zM178 921l207 99l22 -54l-209 -88zM234 752q0 -27 16.5 -42t46.5 -15t46.5 15t16.5 42
t-16.5 41.5t-46.5 14.5t-46.5 -14.5t-16.5 -41.5z" />
    <glyph glyph-name="aringacute" unicode="&#x1fb;" horiz-adv-x="499" 
d="M419 351v-268q4 -37 65 -44l-3 -48q-77 0 -113 40q-94 -41 -188 -41q-67 0 -102 38.5t-35 110t35.5 106t111.5 42.5l170 17v47q0 56 -24.5 80.5t-65.5 24.5q-64 0 -166 -12l-31 -3l-3 48q110 21 192.5 21t119.5 -39t37 -120zM105 142q0 -101 83 -101q36 0 79 8.5t68 17.5
l25 9v181l-163 -17q-49 -4 -70.5 -28t-21.5 -70zM172 575q-29 29 -29 71.5t29 71.5t71.5 29t71.5 -29t29 -71.5t-29 -71.5t-71.5 -29t-71.5 29zM202.5 688q-16.5 -17 -16.5 -41.5t16.5 -42t41 -17.5t41 17.5t16.5 42t-16.5 41.5t-41 17t-41 -17zM138 818l207 97l22 -52
l-210 -87z" />
    <glyph glyph-name="AEacute" unicode="&#x1fc;" horiz-adv-x="877" 
d="M412 0v190h-260l-66 -190h-64l234 697h572v-58h-355v-252h295v-58h-295v-271h355v-58h-416zM412 249v390h-111l-132 -390h243zM425 829l207 99l22 -54l-209 -88z" />
    <glyph glyph-name="aeacute" unicode="&#x1fd;" horiz-adv-x="809" 
d="M559 45q49 0 153 7l29 2l2 -50q-112 -14 -190 -14q-99 0 -146 56l-34 -15q-92 -41 -197 -41q-133 0 -133 151q0 80 40.5 109.5t141.5 40.5l135 13v45q0 103 -96 103q-66 0 -159 -8l-31 -2l-2 54q116 13 194 13q108 0 136 -81q49 81 163 81q99 0 148 -56.5t49 -179.5
l-3 -48h-340q1 -92 32.5 -136t107.5 -44zM183 43q89 0 198 42q-23 55 -23 169l-161 -15q-48 -5 -70 -27.5t-22 -70t20.5 -73t57.5 -25.5zM419 275h282q0 97 -32.5 139t-103.5 42q-146 0 -146 -181zM298 640l207 97l22 -52l-210 -87z" />
    <glyph glyph-name="Oslashacute" unicode="&#x1fe;" horiz-adv-x="664" 
d="M332 -10q-71 0 -125 19l-57 -123l-47 21l59 126q-55 40 -78 115.5t-23 195.5q0 183 59 272t212 89q79 0 133 -24l54 115l47 -19l-58 -123q96 -77 96 -310q0 -188 -58.5 -271t-213.5 -83zM133.5 475q-8.5 -53 -8.5 -141t13.5 -149t49.5 -95l252 537q-44 22 -107.5 22
t-104.5 -19.5t-63.5 -60.5t-31 -94zM332 46q124 0 166 68t42 241t-59 240l-249 -533q39 -16 100 -16zM219 829l207 99l22 -54l-209 -88z" />
    <glyph glyph-name="oslashacute" unicode="&#x1ff;" horiz-adv-x="527" 
d="M264 510q45 0 78 -9l43 104l43 -15l-44 -105q89 -49 89 -228q0 -147 -43.5 -207t-165.5 -60q-44 0 -79 8l-45 -111l-42 15l44 111q-49 25 -68.5 83t-19.5 161q0 135 47.5 194t162.5 59zM264 457q-85 0 -116.5 -43t-31.5 -141.5t10 -143t40 -64.5l156 385q-22 7 -58 7z
M264 43q92 0 120 46t28 175.5t-50 167.5l-157 -383q24 -6 59 -6zM149 640l207 97l22 -52l-210 -87z" />
    <glyph glyph-name="Scommaaccent" unicode="&#x218;" horiz-adv-x="541" 
d="M258 -78h60l-48 -200h-52zM275 651q-161 0 -161 -123q0 -72 36.5 -97t143 -46t152 -58t45.5 -124q0 -112 -55.5 -161.5t-162.5 -49.5q-78 0 -181 14l-36 5l7 53q137 -17 212 -17t114 36.5t39 107t-34.5 96t-110 39.5t-110.5 25.5t-65.5 33t-43.5 55t-13 84.5
q0 182 220 182q66 0 172 -14l33 -5l-5 -53q-138 17 -196 17z" />
    <glyph glyph-name="scommaaccent" unicode="&#x219;" horiz-adv-x="464" 
d="M182 -78h60l-48 -200h-51zM226 455q-118 0 -118 -85q0 -39 26 -55t117.5 -31.5t129 -42.5t37.5 -103.5t-49 -112t-144 -35.5q-55 0 -142 14l-29 4l4 53q112 -17 172 -17t93.5 21t33.5 71t-27.5 66.5t-118 30.5t-127.5 40t-37 98t51 105t126 33q60 0 150 -13l27 -4l-2 -53
q-107 16 -173 16z" />
    <glyph glyph-name="Tcommaaccent" unicode="&#x21a;" horiz-adv-x="526" 
d="M252 -78h60l-48 -200h-51zM13 639v56h500v-56h-218v-639h-62v639h-220z" />
    <glyph glyph-name="tcommaaccent" unicode="&#x21b;" horiz-adv-x="347" 
d="M164 -78h61l-49 -200h-51zM328 447h-167v-247q0 -97 14 -127t66 -30l92 7l4 -51q-66 -10 -101 -10q-76 0 -105.5 37.5t-29.5 143.5v277h-74v53h74v157h60v-157h167v-53z" />
    <glyph glyph-name="circumflex" unicode="&#x2c6;" horiz-adv-x="228" 
d="M-17 595l122 137h42l123 -137h-63l-80 92l-81 -92h-63z" />
    <glyph glyph-name="caron" unicode="&#x2c7;" horiz-adv-x="228" 
d="M106 595l-122 137h62l82 -91l81 91h62l-123 -137h-42z" />
    <glyph glyph-name="breve" unicode="&#x2d8;" horiz-adv-x="228" 
d="M60.5 660.5q24.5 -24.5 67 -24.5t67.5 25t26 64h52q-2 -59 -41.5 -97.5t-103.5 -38.5t-103 38.5t-41 97.5h51q1 -40 25.5 -64.5z" />
    <glyph glyph-name="dotaccent" unicode="&#x2d9;" horiz-adv-x="228" 
d="M84 623v75h60v-75h-60z" />
    <glyph glyph-name="ring" unicode="&#x2da;" horiz-adv-x="228" 
d="M46 575q-29 29 -29 71.5t29 71.5t71.5 29t71.5 -29t29 -71.5t-29 -71.5t-71.5 -29t-71.5 29zM76.5 688q-16.5 -17 -16.5 -41.5t16.5 -42t41 -17.5t41 17.5t16.5 42t-16.5 41.5t-41 17t-41 -17z" />
    <glyph glyph-name="ogonek" unicode="&#x2db;" horiz-adv-x="444" 
d="M240 -107q0 -20 12 -33t31 -13l52 6l6 -48q-41 -9 -76 -9t-59.5 23t-24.5 54.5t20.5 63t40.5 51.5l21 19l52 -6q-75 -76 -75 -108z" />
    <glyph glyph-name="tilde" unicode="&#x2dc;" horiz-adv-x="228" 
d="M197 619q-21 0 -74 24.5t-65 24.5q-24 0 -62 -30l-13 -11l-15 40q50 50 88 50q21 0 74.5 -24t65.5 -24q21 0 56 29l12 10l14 -42q-45 -47 -81 -47z" />
    <glyph glyph-name="hungarumlaut" unicode="&#x2dd;" horiz-adv-x="228" 
d="M139 623l151 126l41 -37l-153 -125zM-51 623l152 126l40 -37l-153 -125z" />
    <glyph glyph-name="pi" unicode="&#x3c0;" 
d="M369 154v293h-175l-28 -447h-61l31 447q-61 0 -101 -10l-12 -3v52q58 14 140 14h231q63 0 119 12l17 3v-52q-29 -12 -102 -14v-295q0 -64 18.5 -84t73.5 -20v-53q-91 0 -121 31t-30 126z" />
    <glyph glyph-name="Wgrave" unicode="&#x1e80;" horiz-adv-x="874" 
d="M33 695h63l126 -640h33l146 632h73l145 -632h33l126 640h63l-143 -695h-124l-137 610l-137 -610h-124zM339 928l207 -99l-20 -43l-209 88z" />
    <glyph glyph-name="wgrave" unicode="&#x1e81;" horiz-adv-x="760" 
d="M33 500h61l110 -448h14l130 438h63l130 -438h15l110 448h61l-125 -500h-104l-118 412l-119 -412h-103zM265 737l207 -97l-19 -42l-210 87z" />
    <glyph glyph-name="Wacute" unicode="&#x1e82;" horiz-adv-x="874" 
d="M33 695h63l126 -640h33l146 632h73l145 -632h33l126 640h63l-143 -695h-124l-137 610l-137 -610h-124zM332 829l207 99l22 -54l-209 -88z" />
    <glyph glyph-name="wacute" unicode="&#x1e83;" horiz-adv-x="760" 
d="M33 500h61l110 -448h14l130 438h63l130 -438h15l110 448h61l-125 -500h-104l-118 412l-119 -412h-103zM284 640l207 97l22 -52l-210 -87z" />
    <glyph glyph-name="Wdieresis" unicode="&#x1e84;" horiz-adv-x="874" 
d="M33 695h63l126 -640h33l146 632h73l145 -632h33l126 640h63l-143 -695h-124l-137 610l-137 -610h-124zM307 819v80h59v-80h-59zM508 819v80h58v-80h-58z" />
    <glyph glyph-name="wdieresis" unicode="&#x1e85;" horiz-adv-x="760" 
d="M33 500h61l110 -448h14l130 438h63l130 -438h15l110 448h61l-125 -500h-104l-118 412l-119 -412h-103zM253 627v80h59v-80h-59zM450 627v80h58v-80h-58z" />
    <glyph glyph-name="uni1EAB" unicode="&#x1eab;" horiz-adv-x="499" 
d="M419 351v-268q4 -37 65 -44l-3 -48q-77 0 -113 40q-94 -41 -188 -41q-67 0 -102 38.5t-35 110t35.5 106t111.5 42.5l170 17v47q0 56 -24.5 80.5t-65.5 24.5q-64 0 -166 -12l-31 -3l-3 48q110 21 192.5 21t119.5 -39t37 -120zM105 142q0 -101 83 -101q36 0 79 8.5t68 17.5
l25 9v181l-163 -17q-49 -4 -70.5 -28t-21.5 -70zM92 565l122 137h42l123 -137h-63l-80 92l-81 -92h-63zM299 734q-21 0 -74 24.5t-65 24.5q-22 0 -62 -31l-13 -10l-15 40q50 50 88 50q21 0 74.5 -24t65.5 -24q19 0 56 30l12 9l14 -42q-45 -47 -81 -47z" />
    <glyph glyph-name="uni1EB0" unicode="&#x1eb0;" horiz-adv-x="592" 
d="M25 0l200 697h145l197 -696h-62l-58 189h-304l-56 -190h-62zM270 640l-112 -391h275l-111 391h-52zM294 808q39 0 66 21.5t28 57.5h56q-1 -57 -43 -92t-107 -35t-106.5 35t-43.5 92h57q1 -36 27.5 -57.5t65.5 -21.5zM146 1075l207 -97l-19 -42l-210 87z" />
    <glyph glyph-name="uni1EC5" unicode="&#x1ec5;" horiz-adv-x="504" 
d="M253 45q50 0 153 7l30 2l2 -50q-113 -14 -191 -14q-108 1 -151 64t-43 194q0 261 206 261q99 0 148 -56.5t49 -179.5l-2 -48h-340q0 -92 31.5 -136t107.5 -44zM114 275h282q0 98 -32.5 139.5t-104.5 41.5q-145 0 -145 -181zM112 565l122 137h42l123 -137h-63l-80 92
l-81 -92h-63zM324 734q-21 0 -74 24.5t-66 24.5q-21 0 -61 -31l-13 -10l-15 40q50 50 88 50q21 0 74.5 -24t64.5 -24q20 0 57 30l12 9l14 -42q-45 -47 -81 -47z" />
    <glyph glyph-name="uni1ED7" unicode="&#x1ed7;" horiz-adv-x="527" 
d="M425.5 451q47.5 -59 47.5 -200t-43.5 -201t-165.5 -60t-166 60t-44 201t47.5 200t162 59t162 -59zM384 89q28 46 28 163.5t-31.5 161t-116.5 43.5t-116.5 -43t-31.5 -161.5t27.5 -164t120 -45.5t120.5 46zM113 565l122 137h42l123 -137h-63l-80 92l-81 -92h-63zM318 734
q-21 0 -74 24.5t-66 24.5q-21 0 -61 -31l-13 -10l-15 40q50 50 88 50q21 0 74.5 -24t64.5 -24q20 0 57 30l12 9l14 -42q-45 -47 -81 -47z" />
    <glyph glyph-name="Ygrave" unicode="&#x1ef2;" horiz-adv-x="534" 
d="M298 0h-62v294l-223 401h69l185 -337l184 337h70l-223 -401v-294zM161 928l207 -99l-20 -43l-209 88z" />
    <glyph glyph-name="ygrave" unicode="&#x1ef3;" horiz-adv-x="478" 
d="M27 500h61l133 -448h36l134 448h61l-216 -725h-60l67 225h-69zM132 737l207 -97l-19 -42l-210 87z" />
    <glyph glyph-name="uni1EF8" unicode="&#x1ef8;" horiz-adv-x="528" 
d="M296 0h-62v299l-223 398h69l185 -329l182 329h70l-221 -398v-299zM333 817q-21 0 -74 24.5t-65 24.5q-24 0 -62 -30l-13 -11l-15 40q50 50 88 50q21 0 74.5 -24t65.5 -24q21 0 56 29l12 10l14 -42q-45 -47 -81 -47z" />
    <glyph glyph-name="uni1EF9" unicode="&#x1ef9;" horiz-adv-x="478" 
d="M27 500h61l133 -443h36l134 443h61l-216 -725h-60l66 225h-68zM307 619q-21 0 -74 24.5t-65 24.5q-24 0 -62 -30l-13 -11l-15 40q50 50 88 50q21 0 74.5 -24t65.5 -24q21 0 56 29l12 10l14 -42q-45 -47 -81 -47z" />
    <glyph glyph-name="endash" unicode="&#x2013;" horiz-adv-x="636" 
d="M68 295h500v-54h-500v54z" />
    <glyph glyph-name="emdash" unicode="&#x2014;" horiz-adv-x="1136" 
d="M68 295h1000v-54h-1000v54z" />
    <glyph glyph-name="quoteleft" unicode="&#x2018;" horiz-adv-x="209" 
d="M161 715l-42 -211h-64l58 211h48z" />
    <glyph glyph-name="quoteright" unicode="&#x2019;" horiz-adv-x="207" 
d="M57 503l42 211h64l-58 -211h-48z" />
    <glyph glyph-name="quotesinglbase" unicode="&#x201a;" horiz-adv-x="208" 
d="M105 56l-21 -105h-32l29 105h24z" />
    <glyph glyph-name="quotedblleft" unicode="&#x201c;" horiz-adv-x="355" 
d="M307 715l-42 -211h-64l58 211h48zM161 715l-42 -211h-64l58 211h48z" />
    <glyph glyph-name="quotedblright" unicode="&#x201d;" horiz-adv-x="361" 
d="M57 504l42 211h64l-58 -211h-48zM211 504l42 211h64l-58 -211h-48z" />
    <glyph glyph-name="quotedblbase" unicode="&#x201e;" horiz-adv-x="343" 
d="M135 111l-42 -211h-64l58 211h48zM278 111l-42 -211h-64l58 211h48z" />
    <glyph glyph-name="dagger" unicode="&#x2020;" horiz-adv-x="478" 
d="M35 446v54h174v195h60v-195h173v-54h-173l-4 -523h-53l-3 523h-174z" />
    <glyph glyph-name="daggerdbl" unicode="&#x2021;" horiz-adv-x="523" 
d="M232 -77v195h-174v52h174v276h-174v54h174v195h59v-195h174v-54h-174v-276h174v-52h-174v-195h-59z" />
    <glyph glyph-name="bullet" unicode="&#x2022;" horiz-adv-x="478" 
d="M114 107v288h250v-288h-250z" />
    <glyph glyph-name="ellipsis" unicode="&#x2026;" horiz-adv-x="715" 
d="M70 0v101h66v-101h-66zM324 0v101h66v-101h-66zM579 0v101h66v-101h-66z" />
    <glyph glyph-name="perthousand" unicode="&#x2030;" horiz-adv-x="832" 
d="M104 603.5q-13 -22.5 -13 -69.5q0 -97 56 -97q31 0 44 23.5t13 72t-13 71t-43.5 22.5t-43.5 -22.5zM171 -3l197 679l42 -13l-198 -678zM40 534q0 136 107.5 136t107.5 -137q0 -70 -29 -105t-79 -35t-78.5 35t-28.5 106zM322 131q0 136 107.5 136t107.5 -137
q0 -70 -28.5 -105t-79 -35t-79 35t-28.5 106zM373 131q0 -97 57 -97q30 0 43 24t13 72.5t-12.5 70.5t-43.5 22t-44 -22t-13 -70zM580 131q0 136 107.5 136t107.5 -137q0 -70 -29 -105t-79 -35t-78.5 35t-28.5 106zM631 131q0 -97 56.5 -97t56.5 96q0 48 -13 70.5t-43.5 22.5
t-43.5 -22t-13 -70z" />
    <glyph glyph-name="guilsinglleft" unicode="&#x2039;" horiz-adv-x="297" 
d="M227 350l-129 -99l129 -109v-64l-181 146v51l181 138v-63z" />
    <glyph glyph-name="guilsinglright" unicode="&#x203a;" horiz-adv-x="297" 
d="M198 254l-128 98v63l181 -138v-51l-181 -146v65z" />
    <glyph glyph-name="fraction" unicode="&#x2044;" horiz-adv-x="0" 
d="M-224 28l392 631l36 -23l-392 -630z" />
    <glyph glyph-name="zerosuperior" unicode="&#x2070;" horiz-adv-x="280" 
d="M53.5 761.5q29.5 37.5 86.5 37.5t86 -37.5t29 -127.5t-29 -128t-86 -38t-86.5 38t-29.5 128t29.5 127.5zM187 724q-15 27 -47.5 27t-47.5 -27t-15 -90.5t16 -90t47 -26.5t46.5 26.5t15.5 90t-15 90.5z" />
    <glyph glyph-name="foursuperior" unicode="&#x2074;" horiz-adv-x="280" 
d="M169 478v51h-142v46l76 215h58l-78 -212h86l4 88h49v-88h31v-49h-31v-51h-53z" />
    <glyph glyph-name="fivesuperior" unicode="&#x2075;" horiz-adv-x="280" 
d="M148 628q-29 0 -59 -18l-43 5l10 175h182v-47h-138l-6 -85q30 17 62 17q92 0 92 -98q0 -108 -102 -108q-36 0 -89 10l-16 3l5 44q54 -9 96 -9q52 0 52 55.5t-46 55.5z" />
    <glyph glyph-name="sixsuperior" unicode="&#x2076;" horiz-adv-x="280" 
d="M153 751q-67 0 -67 -86l10 4q30 13 55 13q101 0 101 -102q0 -52 -29 -82t-78 -30q-113 0 -113 162q0 89 29 129t91 40q25 0 72 -7l14 -2l-3 -45q-46 6 -82 6zM85 617q3 -101 58.5 -101t55.5 60t-47 60q-35 0 -51 -9t-16 -10z" />
    <glyph glyph-name="sevensuperior" unicode="&#x2077;" horiz-adv-x="280" 
d="M30 738v52h201v-71l-107 -250l-56 12l105 235v22h-143z" />
    <glyph glyph-name="eightsuperior" unicode="&#x2078;" horiz-adv-x="280" 
d="M140 799q110 0 110 -84q0 -31 -11 -47.5t-36 -24.5q52 -16 52 -78q0 -97 -115 -97t-115 93q0 60 52 82q-24 9 -35.5 25t-11.5 48q0 83 110 83zM140 514q62 0 62 51q0 43 -47 56h-30q-47 -14 -47 -58q0 -49 62 -49zM140 753q-58 0 -58 -41q0 -20 10 -30.5t33 -18.5h30
q24 8 33.5 18t9.5 30q0 42 -58 42z" />
    <glyph glyph-name="ninesuperior" unicode="&#x2079;" horiz-adv-x="280" 
d="M126 517q69 0 71 84l-10 -3q-33 -10 -58 -10q-48 0 -74.5 27.5t-26.5 77.5t30 78t78 28q115 0 115 -167q0 -85 -29.5 -124.5t-92.5 -39.5q-29 0 -75 8l-13 3l4 45q43 -7 81 -7zM95.5 649q14.5 -17 32.5 -17q29 0 60 12l10 3q-1 54 -14.5 79t-45.5 25q-57 0 -57 -59
q0 -26 14.5 -43z" />
    <glyph glyph-name="zeroinferior" unicode="&#x2080;" horiz-adv-x="280" 
d="M53.5 183.5q29.5 37.5 86.5 37.5t86 -37.5t29 -127.5t-29 -128t-86 -38t-86.5 38t-29.5 128t29.5 127.5zM187 146q-15 27 -47.5 27t-47.5 -27t-15 -90.5t16 -90t47 -26.5t46.5 26.5t15.5 90t-15 90.5z" />
    <glyph glyph-name="oneinferior" unicode="&#x2081;" horiz-adv-x="280" 
d="M202 212v-312h-53v253l-73 -50l-25 40l101 69h50z" />
    <glyph glyph-name="twoinferior" unicode="&#x2082;" horiz-adv-x="280" 
d="M244 -100h-203v46l92 95q27 27 39.5 46t12.5 42q0 43 -52 43l-87 -9l-2 46q56 12 99 12q96 0 96 -88q0 -34 -14 -58t-48 -57l-69 -70h136v-48z" />
    <glyph glyph-name="threeinferior" unicode="&#x2083;" horiz-adv-x="280" 
d="M37 211q56 10 104 10t72.5 -19.5t24.5 -62.5q0 -23 -10 -41q-14 -25 -32 -33q26 -8 38 -25t12 -54q0 -96 -103 -96q-37 0 -93 8l-17 3l3 46q56 -8 106 -8t50 48q0 50 -51 50h-65v46h64q16 0 30 15t14 36q0 39 -51 39q-39 0 -79 -6l-14 -2z" />
    <glyph glyph-name="fourinferior" unicode="&#x2084;" horiz-adv-x="280" 
d="M177 -100v51h-142v46l76 215h58l-78 -212h86l4 88h49v-88h31v-49h-31v-51h-53z" />
    <glyph glyph-name="fiveinferior" unicode="&#x2085;" horiz-adv-x="280" 
d="M139 50q-29 0 -59 -18l-43 5l10 175h182v-47h-138l-6 -85q30 17 62 17q92 0 92 -98q0 -108 -102 -108q-36 0 -89 10l-16 3l5 44q54 -9 96 -9q52 0 52 55.5t-46 55.5z" />
    <glyph glyph-name="sixinferior" unicode="&#x2086;" horiz-adv-x="280" 
d="M150 173q-67 0 -67 -86l9 4q31 13 56 13q101 0 101 -102q0 -52 -29 -82t-78 -30q-113 0 -113 162q0 89 29 129t91 40q25 0 73 -7l13 -2l-3 -45q-46 6 -82 6zM82 39q3 -101 58.5 -101t55.5 60t-46 60q-36 0 -52 -9t-16 -10z" />
    <glyph glyph-name="seveninferior" unicode="&#x2087;" horiz-adv-x="280" 
d="M40 160v52h201v-71l-107 -250l-56 12l105 235v22h-143z" />
    <glyph glyph-name="eightinferior" unicode="&#x2088;" horiz-adv-x="280" 
d="M139 221q110 0 110 -84q0 -31 -11 -47.5t-36 -24.5q52 -16 52 -78q0 -97 -115 -97t-115 93q0 60 52 82q-24 9 -35.5 25t-11.5 48q0 83 110 83zM139 -64q62 0 62 51q0 43 -47 56h-30q-47 -14 -47 -58q0 -49 62 -49zM139 175q-58 0 -58 -41q0 -20 10 -30.5t33 -18.5h30
q24 8 33.5 18t9.5 30q0 42 -58 42z" />
    <glyph glyph-name="nineinferior" unicode="&#x2089;" horiz-adv-x="280" 
d="M124 -61q69 0 71 84l-10 -3q-33 -10 -58 -10q-48 0 -74.5 27.5t-26.5 77.5t30 78t78 28q115 0 115 -167q0 -85 -29.5 -124.5t-92.5 -39.5q-29 0 -75 8l-13 3l4 45q43 -7 81 -7zM93.5 71q14.5 -17 32.5 -17q27 0 60 12l10 3q-1 54 -14.5 79t-45.5 25q-57 0 -57 -59
q0 -26 14.5 -43z" />
    <glyph glyph-name="Euro" unicode="&#x20ac;" 
d="M30 383v51h66q11 120 64 178t172 58q82 0 178 -20l-3 -51q-92 18 -176.5 18t-124 -44.5t-49.5 -138.5h299v-51h-302q-1 -18 -1 -52.5t1 -49.5h302v-51h-300q9 -97 49 -141.5t125 -44.5t177 18l3 -52q-102 -20 -178 -20q-119 0 -172 59t-64 181h-66v51h63q-1 15 -1 49.5
t1 52.5h-63z" />
    <glyph glyph-name="trademark" unicode="&#x2122;" horiz-adv-x="682" 
d="M94 584v43h200v-43h-72v-252h-47v252h-81zM327 331v296h63l73 -221l77 221h63v-296h-45v237l-74 -224h-40l-73 224v-237h-44z" />
    <glyph glyph-name="Omega" unicode="&#x2126;" 
d="M44 45h133q-13 21 -32 56.5t-50.5 123t-31.5 149.5q0 155 46.5 225.5t170.5 70.5t170.5 -70.5t46.5 -225.5q0 -62 -29 -144t-58 -134l-28 -51h134v-54h-194v46q43 82 77 176t34 144q0 141 -29.5 199.5t-123.5 58.5q-75 0 -112 -41q-31 -33 -38 -124q-3 -37 -3 -90
t27.5 -133t55.5 -135l27 -55v-46h-193v54z" />
    <glyph glyph-name="partialdiff" unicode="&#x2202;" 
d="M266 732q118 0 173.5 -86.5t55.5 -279.5t-53.5 -284t-171.5 -91q-104 0 -162 57.5t-58 160.5t56 161t152 58q71 0 149 -24l25 -7q-4 149 -44 215t-132 66q-32 0 -71.5 -12t-62.5 -24l-24 -11l-4 49q33 20 83 36t89 16zM432 342q-89 32 -164.5 32t-115 -44t-39.5 -121
t40 -120.5t121 -43.5t119 73t39 224z" />
    <glyph glyph-name="Delta" unicode="&#x2206;" 
d="M55 0v45l168 615h113l167 -615l1 -45h-449zM292 606h-26l-148 -552h321z" />
    <glyph glyph-name="product" unicode="&#x220f;" 
d="M394 -158v855h-229v-855h-62v855h-73v55h500v-55h-74v-855h-62z" />
    <glyph glyph-name="summation" unicode="&#x2211;" 
d="M47 752h463v-56h-399v-24l267 -340v-46l-267 -361v-28h399v-55h-463v91l274 377l-274 352v90z" />
    <glyph glyph-name="minus" unicode="&#x2212;" 
d="M67 223v56h426v-56h-426z" />
    <glyph glyph-name="radical" unicode="&#x221a;" 
d="M5 392v55h111l137 -532h9l243 859h61l-260 -912h-99l-142 530h-60z" />
    <glyph glyph-name="infinity" unicode="&#x221e;" 
d="M152 121q-121 0 -121 171q0 82 30 126.5t83.5 44.5t83 -28t52.5 -86q22 58 51.5 86t83.5 28t84 -44.5t30 -126.5q0 -171 -122 -171q-46 0 -75.5 27.5t-51.5 84.5q-24 -65 -51 -88.5t-77 -23.5zM156 408q-66 0 -66 -116t66 -116q39 0 56.5 22t30 55.5t14.5 38.5
q-3 6 -10 23.5t-10 24.5t-10 20.5t-13 20t-15 13.5q-16 14 -43 14zM403 176q67 0 67 116t-67 116q-41 0 -64 -38q-11 -18 -22.5 -45t-14.5 -33q3 -7 11.5 -27t12.5 -28t13 -22.5t17 -20.5q22 -18 47 -18z" />
    <glyph glyph-name="integral" unicode="&#x222b;" 
d="M309 -4q0 -99 -32 -139.5t-101 -40.5l-85 7l2 52q42 -4 80 -4t56.5 27.5t18.5 98.5v574q0 115 32 161.5t101 46.5q38 0 75 -6l13 -2l-2 -51q-39 5 -78.5 5t-59.5 -35t-20 -119v-575z" />
    <glyph glyph-name="approxequal" unicode="&#x2248;" 
d="M381 271q-30 0 -105.5 33t-93.5 33t-44.5 -12.5t-43.5 -24.5l-18 -12l-11 51q64 54 116 54q29 0 104 -33t93.5 -33t44.5 12t43 24l18 12l10 -50q-60 -54 -113 -54zM381 95q-30 0 -105.5 33t-93.5 33t-44.5 -12.5t-43.5 -24.5l-18 -12l-11 51q64 54 116 54q29 0 104 -33
t93.5 -33t44.5 12t43 24l18 12l10 -50q-60 -54 -113 -54z" />
    <glyph glyph-name="notequal" unicode="&#x2260;" 
d="M65 312v56h243l68 156l50 -20l-60 -136h128v-56h-152l-54 -123h206v-56h-230l-67 -154l-50 20l58 134h-140v56h165l53 123h-218z" />
    <glyph glyph-name="lessequal" unicode="&#x2264;" 
d="M488 431l-351 -115l351 -125v-61l-423 156v56l423 151v-62zM65 23v55h423v-55h-423z" />
    <glyph glyph-name="greaterequal" unicode="&#x2265;" 
d="M422 316l-351 115v62l423 -151v-56l-423 -156v61zM494 78v-55h-423v55h423z" />
    <glyph glyph-name="lozenge" unicode="&#x25ca;" 
d="M439 330l-145 165h36l174 -165l-174 -165h-36zM56 330l174 165h34l-143 -165l143 -165h-34zM292 162h-25l-3 3h30zM264 495l3 3h25l2 -3h-30z" />
    <glyph glyph-name="dotlessj" unicode="&#xf6be;" horiz-adv-x="209" 
d="M75 10v490h60v-491q0 -88 -32.5 -134t-131.5 -96l-24 48q80 45 104 79t24 104z" />
    <glyph glyph-name="commaaccent" unicode="&#xf6c3;" horiz-adv-x="170" 
d="M30 -278l39 200h61l-49 -200h-51z" />
    <glyph glyph-name="questiondown.cap" horiz-adv-x="441" 
d="M39 151q0 63 18 96.5t72 79.5t76 74t22 62v36h52q9 -25 9 -57.5t-24.5 -64.5t-77 -77.5t-69.5 -72.5t-17 -79t35 -77t110 -25q50 0 129 18l27 7l6 -51q-106 -29 -167 -29q-101 0 -151 37.5t-50 122.5zM287 695v-100h-66v100h66z" />
    <glyph glyph-name="endash.cap" horiz-adv-x="637" 
d="M68 325h500v-54h-500v54z" />
    <glyph glyph-name="emdash.cap" horiz-adv-x="1137" 
d="M68 325h1000v-54h-1000v54z" />
    <glyph glyph-name="periodcentered.cap" horiz-adv-x="206" 
d="M70 286v101h66v-101h-66z" />
    <glyph glyph-name="exclamdown.cap" horiz-adv-x="239" 
d="M152 694v-100h-66v100h66zM148 471l3 -472h-63l4 472h56z" />
    <glyph glyph-name="parenleft.cap" horiz-adv-x="252" 
d="M118 331.5q0 -84.5 24 -191t48 -170.5l23 -65h-58q-11 24 -28 66t-45 154.5t-28 188.5t10.5 144t25.5 122q29 110 54 174l11 26h58q-34 -91 -64.5 -227.5t-30.5 -221z" />
    <glyph glyph-name="parenright.cap" horiz-adv-x="252" 
d="M135 358.5q0 84.5 -23.5 191t-47.5 170.5l-24 65h58q11 -24 28 -66t45 -154.5t28 -205.5t-25.5 -205.5t-50.5 -177.5l-25 -66h-58q34 91 64.5 227.5t30.5 221z" />
    <glyph glyph-name="bracketleft.cap" horiz-adv-x="322" 
d="M281 779v-54h-139v-764h139v-54h-200v872h200z" />
    <glyph glyph-name="bracketright.cap" horiz-adv-x="322" 
d="M41 725v54h200v-872h-200v54h139v764h-139z" />
    <glyph glyph-name="braceleft.cap" horiz-adv-x="350" 
d="M184 604l7 -121q0 -64 -21.5 -93.5t-81.5 -47.5q60 -18 82 -48.5t22 -93.5l-7 -117q0 -62 26.5 -92.5t98.5 -34.5l-2 -53q-99 4 -140.5 45t-41.5 131l7 123q0 44 -24.5 71t-81.5 43v50q57 13 81.5 40t24.5 73l-7 128q0 91 42 131.5t141 44.5l1 -52q-72 -4 -99 -34.5
t-27 -92.5z" />
    <glyph glyph-name="braceright.cap" horiz-adv-x="349" 
d="M166 82l-7 121q0 64 21.5 93.5t81.5 47.5q-60 18 -82 48.5t-22 93.5l7 117q0 62 -26.5 92.5t-98.5 34.5l2 53q99 -4 140.5 -45t41.5 -131l-7 -123q0 -44 24.5 -71t81.5 -43v-50q-57 -13 -81.5 -40t-24.5 -73l7 -128q0 -91 -42 -131.5t-141 -44.5l-1 52q72 4 99 34.5
t27 92.5z" />
    </font>
</defs>
</svg>
